Ускользающая жизнь / Наследство [1-2 серии из 2] (2018) WEB-DLRip-AVC от Files-x

Reply to topic
 
Author Message

Nicodem ®

Gender: Male

Longevity: 1 year

Posts: 284

Post 25-Nov-2018 19:27

[Quote]

Ускользающая жизнь / Наследство
Год выпуска: 2018
Жанр: Детектив, мелодрама
Выпущено: Россия, Кинокомпания "Марс Медиа Энтертейнмент"
Режиссер: Владимир Нахабцев
В ролях: Глафира Тарханова, Александр Никитин (III), Юрий Беляев, Андрей Чадов, Александр Подобед, Андрей Карако, Анна Полупанова, Алеся Самоховец, Светлана Аникей, Олег Ткачёв, Надежда Анципович, Алла Ельяшевич, Игорь Петров (IV), Светлана Никифорова
О фильме: Успешный кардиохирург Альбина Виленская приходит в себя в больнице и узнает, что отец, известный адвокат, умер, лишив ее наследства, жених Игорь бесследно исчез, а сама она пыталась покончить с собой. Расследуя обстоятельства, которые привели к крушению ее жизни, Альбина снова оказывается на краю пропасти. К счастью, на ее пути появляется спаситель, с которым Альбину неожиданно многое связывает.

Качество: WEB-DLRip-AVC
Видео: MPEG-4 AVC, ~ 1600 Кбит/с, 1024x576, 25 кадр/с
Аудио: AC3, 2 ch, 192 Кбит/с
Продолжительность: 2 х 00:48:00
Перевод: Не требуется
Cубтитры: нет

Скриншоты


MediaInfo

General
Unique ID : 197329337894565656234243655091597440409 (0x94743F81E4063227AABCA3F40EC97599)
Complete name : C:\Users\DOM\Downloads\Ускользающая жизнь (Наследство).(2018).WEB-DLRip.(AVC).Files-x\01.Uskolzayushchaya.zhizn.(2018).WEB-DLRip.(AVC).by.Серый1779.Files-x.mkv
Format : Matroska
File size : 614 MiB
Duration : 47mn 54s
Overall bit rate : 1 793 Kbps
Encoded date : UTC 2018-09-23 01:21:42
Writing application : mkvmerge v7.8.0 ('River Man') 32bit built on Apr 3 2015 12:11:22
Writing library : libebml v1.3.1 + libmatroska v1.4.2
Video
ID : 1
Format : AVC
Format/Info : Advanced Video Codec
Format profile : High@L4.1
Format settings, CABAC : Yes
Format settings, ReFrames : 9 frames
Codec ID : V_MPEG4/ISO/AVC
Duration : 47mn 54s
Bit rate : 1 600 Kbps
Width : 1 024 pixels
Height : 576 pixels
Display aspect ratio : 16:9
Frame rate : 25.000 fps
Color space : YUV
Chroma subsampling : 4:2:0
Bit depth : 8 bits
Scan type : Progressive
Bits/(Pixel*Frame) : 0.109
Stream size : 536 MiB (87%)
Writing library : x264 core 146 r2538 121396c
Encoding settings : cabac=1 / ref=9 / deblock=1:-2:-1 / analyse=0x3:0x133 / me=umh / subme=9 / psy=1 / psy_rd=1.00:0.15 / mixed_ref=1 / me_range=32 / chroma_me=1 / trellis=2 / 8x8dct=1 / cqm=0 / deadzone=21,11 / fast_pskip=0 / chroma_qp_offset=-3 / threads=18 / lookahead_threads=3 / sliced_threads=0 / nr=0 / decimate=1 / interlaced=0 / bluray_compat=0 / constrained_intra=0 / bframes=9 / b_pyramid=2 / b_adapt=2 / b_bias=0 / direct=3 / weightb=1 / open_gop=0 / weightp=2 / keyint=250 / keyint_min=25 / scenecut=40 / intra_refresh=0 / rc=2pass / mbtree=0 / bitrate=1600 / ratetol=1.0 / qcomp=0.60 / qpmin=0 / qpmax=69 / qpstep=4 / cplxblur=20.0 / qblur=0.5 / ip_ratio=1.40 / pb_ratio=1.30 / aq=2:1.00
Color primaries : BT.709-5, BT.1361, IEC 61966-2-4, SMPTE RP177
Transfer characteristics : BT.709-5, BT.1361
Matrix coefficients : BT.709-5, BT.1361, IEC 61966-2-4 709, SMPTE RP177
Audio
ID : 2
Format : AC-3
Format/Info : Audio Coding 3
Mode extension : CM (complete main)
Codec ID : A_AC3
Duration : 47mn 54s
Bit rate mode : Constant
Bit rate : 192 Kbps
Channel(s) : 2 channels
Channel positions : Front: L R
Sampling rate : 48.0 KHz
Bit depth : 16 bits
Compression mode : Lossy
Stream size : 65.8 MiB (11%)
Релиз от:
[Profile] [PM]
Display posts:    
Reply to topic

Current time is: 22-Nov 11:51

All times are UTC + 3



You cannot post new topics in this forum
You cannot reply to topics in this forum
You cannot edit your posts in this forum
You cannot delete your posts in this forum
You cannot vote in polls in this forum
You cannot attach files in this forum
You cannot download files in this forum