Лесник. Своя земля [4 сезон: 1-60 серии из 60] (2017) WEB-DLRip от Files-x

Reply to topic
 
Author Message

bond74 ®

Gender: Male

Longevity: 8 months 7 days

Posts: 553

Post 25-Nov-2018 20:24

[Quote]

Лесник. Своя земля Год выпуска: 2017
Жанр: Криминал, детектив
Выпущено: Россия, Мостелефильм
Режиссер: Виктор Конисевич, Сергей Артимович
В ролях: Олег Штефанко, Анна Большова, Алексей Булдаков, Нина Гогаева, Михаил Васьков, Александр Тютин, Владимир Тимофеев, Николай Сморчков, Вадим Александров, Михаил Солодко, Наталия Санько, Татьяна Журавлёва (II)
О фильме: У Леонида Зубова появляется новый враг — смотрящий по Навлинскому району, авторитет Саша Рафинад. Зубов хорошо знаком с ним — они отбывали срок в одной зоне, где Рафинад числился авторитетом. А так как основной доходный бизнес района — лес, то конфликт между лесником и смотрящим стремительно переходит в войну.
Качество: WEB-DLRip
Видео: XviD, ~ 1500 Кбит/с, 720x400, 25 кадр/с
Аудио: AC3, 2 ch, 192 Кбит/с
Продолжительность: 60 х ~ 00:44:00
Перевод: Не требуется
Субтитры: нет

Скриншоты

MediaInfo

General
Complete name : E:\исходники\Лесник-4. Своя земля.2016.WEB-DLRip.Files-x\24.Лесник-4. Своя земля.2016.WEB-DLRip.Files-x.avi
Format : AVI
Format/Info : Audio Video Interleave
File size : 585 MiB
Duration : 48 min 4 s
Overall bit rate : 1 702 kb/s
Writing application : VirtualDubMod 1.5.10.3 | www.virtualdub-fr.org || (build 2550/release)
Writing library : VirtualDubMod build 2550/release
Video
ID : 0
Format : MPEG-4 Visual
Format profile : Advanced Simple@L5
Format settings : BVOP1 / Custom Matrix
Format settings, BVOP : 1
Format settings, QPel : No
Format settings, GMC : No warppoints
Format settings, Matrix : Custom
Codec ID : XVID
Codec ID/Hint : XviD
Duration : 48 min 4 s
Bit rate : 1 500 kb/s
Width : 720 pixels
Height : 400 pixels
Display aspect ratio : 16:9
Frame rate : 25.000 FPS
Color space : YUV
Chroma subsampling : 4:2:0
Bit depth : 8 bits
Scan type : Progressive
Compression mode : Lossy
Bits/(Pixel*Frame) : 0.208
Stream size : 516 MiB (88%)
Writing library : XviD 73
Audio
ID : 1
Format : AC-3
Format/Info : Audio Coding 3
Codec ID : 2000
Duration : 48 min 4 s
Bit rate mode : Constant
Bit rate : 192 kb/s
Channel(s) : 2 channels
Channel positions : Front: L R
Sampling rate : 48.0 kHz
Frame rate : 31.250 FPS (1536 SPF)
Bit depth : 16 bits
Compression mode : Lossy
Stream size : 66.0 MiB (11%)
Alignment : Split accross interleaves
Interleave, duration : 40 ms (1.00 video frame)
Interleave, preload duratio : 500 ms
Service kind : Complete Main
Релиз от:


Last edited by bond74 on 2018-11-25 22:41; edited 1 time in total
[Profile] [PM]
Display posts:    
Reply to topic

Current time is: 22-Jul 05:50

All times are UTC + 3



You cannot post new topics in this forum
You cannot reply to topics in this forum
You cannot edit your posts in this forum
You cannot delete your posts in this forum
You cannot vote in polls in this forum
You cannot attach files in this forum
You cannot download files in this forum