Лесник. Своя земля [4 сезон: 1-60 серии из 60] (2017) WEB-DL 720p от Files-x

Reply to topic
 
Author Message

bond74 ®

Gender: Male

Longevity: 6 months 9 days

Posts: 446

Post 25-Nov-2018 20:27

[Quote]

Лесник. Своя земля Год выпуска: 2017
Жанр: Криминал, детектив
Выпущено: Россия, Мостелефильм
Режиссер: Виктор Конисевич, Сергей Артимович
В ролях: Олег Штефанко, Анна Большова, Алексей Булдаков, Нина Гогаева, Михаил Васьков, Александр Тютин, Владимир Тимофеев, Николай Сморчков, Вадим Александров, Михаил Солодко, Наталия Санько, Татьяна Журавлёва (II)
О фильме: У Леонида Зубова появляется новый враг — смотрящий по Навлинскому району, авторитет Саша Рафинад. Зубов хорошо знаком с ним — они отбывали срок в одной зоне, где Рафинад числился авторитетом. А так как основной доходный бизнес района — лес, то конфликт между лесником и смотрящим стремительно переходит в войну.
Качество: WEB-DL 720p
Видео: MPEG-4 AVC, ~ 2700 Кбит/с, 1280x720, 25 кадр/с
Аудио: AC3, 2 ch, 192 Кбит/с
Продолжительность: 60 х ~ 00:44:00
Перевод: Не требуется
Субтитры: нет

Скриншоты

MediaInfo

General
Unique ID : 190863913497734105993093442615932788668 (0x8F970D7936ABC8E29157EB2B4A129FBC)
Complete name : H:\Лесник-4. Своя земля.2016.WEB-DL 720p.Files-x\01.Лесник-4. Своя земля.2016. WEB-DL 720p.Files-x.mkv
Format : Matroska
File size : 972 MiB
Duration : 49mn 19s
Overall bit rate : 2 755 Kbps
Encoded date : UTC 2017-10-22 19:31:17
Writing application : mkvmerge v7.8.0 ('River Man') 32bit built on Apr 3 2015 12:11:22
Writing library : libebml v1.3.1 + libmatroska v1.4.2
Video
ID : 1
Format : AVC
Format/Info : Advanced Video Codec
Format profile : High@L4.0
Format settings, CABAC : Yes
Format settings, ReFrames : 4 frames
Format settings, GOP : M=1, N=50
Codec ID : V_MPEG4/ISO/AVC
Duration : 49mn 19s
Bit rate : 2 569 Kbps
Width : 1 280 pixels
Height : 720 pixels
Display aspect ratio : 16:9
Frame rate mode : Variable
Frame rate : 25.000 fps
Color space : YUV
Chroma subsampling : 4:2:0
Bit depth : 8 bits
Scan type : Progressive
Bits/(Pixel*Frame) : 0.112
Stream size : 885 MiB (91%)
Writing library : x264 core 142
Encoding settings : cabac=1 / ref=3 / deblock=1:0:0 / analyse=0x3:0x113 / me=hex / subme=7 / psy=1 / psy_rd=1.00:0.00 / mixed_ref=1 / me_range=16 / chroma_me=1 / trellis=1 / 8x8dct=1 / cqm=0 / deadzone=21,11 / fast_pskip=1 / chroma_qp_offset=-2 / threads=36 / lookahead_threads=5 / sliced_threads=0 / nr=0 / decimate=1 / interlaced=0 / bluray_compat=0 / constrained_intra=0 / bframes=6 / b_pyramid=2 / b_adapt=1 / b_bias=0 / direct=1 / weightb=1 / open_gop=0 / weightp=2 / keyint=50 / keyint_min=26 / scenecut=0 / intra_refresh=0 / rc_lookahead=40 / rc=2pass / mbtree=1 / bitrate=2569 / ratetol=1.0 / qcomp=0.60 / qpmin=0 / qpmax=69 / qpstep=4 / cplxblur=20.0 / qblur=0.5 / vbv_maxrate=3854 / vbv_bufsize=10279 / nal_hrd=none / filler=0 / ip_ratio=1.40 / aq=1:1.00
Audio
ID : 2
Format : AC-3
Format/Info : Audio Coding 3
Mode extension : CM (complete main)
Codec ID : A_AC3
Duration : 49mn 19s
Bit rate mode : Constant
Bit rate : 192 Kbps
Channel(s) : 2 channels
Channel positions : Front: L R
Sampling rate : 48.0 KHz
Bit depth : 16 bits
Compression mode : Lossy
Stream size : 67.7 MiB (7%)
Релиз от:


Last edited by bond74 on 2018-11-25 22:41; edited 1 time in total
[Profile] [PM]
Display posts:    
Reply to topic

Current time is: 24-May 17:09

All times are UTC + 3



You cannot post new topics in this forum
You cannot reply to topics in this forum
You cannot edit your posts in this forum
You cannot delete your posts in this forum
You cannot vote in polls in this forum
You cannot attach files in this forum
You cannot download files in this forum