Таисия [1-4 серии из 4] (2018) SATRip от Files-x

Reply to topic
 
Author Message

Nicodem ®

Gender: Male

Longevity: 1 year

Posts: 284

Post 25-Nov-2018 20:49

[Quote]

Таисия
Год выпуска: 2018
Жанр: Мелодрама
Выпущено: Россия, Украина, Киевтелефильм, Armada FILMS
Режиссер: Валерий Ибрагимов
В ролях: Евгения Нохрина, Дмитрий Белякин, Алексей Зубков, Анна Казючиц, Алексей Тритенко, Анатолий Зиновенко
О фильме: Таисия живёт в посёлке, затерянном среди непроходимых лесов и совершенно оторванном от цивилизации. Здесь почти нет жителей, отсутствует мобильная связь, а единственную дорогу, связывающую поселок с городом, периодически размывает, и тогда по ней невозможно проехать. Таисия – сирота. Единственный человек, к которому она может обратиться за советом, – пожилая соседка Василиса. У девушки есть поклонник – местный хулиган и браконьер Вадим, недавно вышедший из тюрьмы. Она не испытывает к нему ни малейшей симпатии. Но в такой глуши защитить Таю от его ухаживаний некому.Все меняется, когда в поселок приезжает молодой талантливый художник Сергей...
Качество: SATRip
Видео: XviD, ~ 1754 Кбит/с, 720x400, 25 кадр/с
Аудио: AC3, 2 ch, 192 Кбит/с
Продолжительность: 4 х 00:51:00
Перевод: Не требуется
Cубтитры: Украинские

Скриншоты




MediaInfo

General
Complete name : C:\Users\DOM\Downloads\Таисия.2018.SATRip..Files-x\01.Таисия.2018.SATRip..Files-x.avi
Format : AVI
Format/Info : Audio Video Interleave
File size : 698 MiB
Duration : 49mn 52s
Overall bit rate : 1 956 Kbps
Writing application : VirtualDubMod 1.5.10.3 | www.virtualdub-fr.org || (build 2550/release)
Writing library : VirtualDubMod build 2550/release
Video
ID : 0
Format : MPEG-4 Visual
Format profile : Advanced Simple@L5
Format settings, BVOP : 1
Format settings, QPel : No
Format settings, GMC : No warppoints
Format settings, Matrix : Custom
Codec ID : XVID
Codec ID/Hint : XviD
Duration : 49mn 52s
Bit rate : 1 754 Kbps
Width : 720 pixels
Height : 400 pixels
Display aspect ratio : 16:9
Frame rate : 25.000 fps
Color space : YUV
Chroma subsampling : 4:2:0
Bit depth : 8 bits
Scan type : Progressive
Compression mode : Lossy
Bits/(Pixel*Frame) : 0.244
Stream size : 626 MiB (90%)
Writing library : XviD 73
Audio
ID : 1
Format : AC-3
Format/Info : Audio Coding 3
Mode extension : CM (complete main)
Codec ID : 2000
Duration : 49mn 52s
Bit rate mode : Constant
Bit rate : 192 Kbps
Channel(s) : 2 channels
Channel positions : Front: L R
Sampling rate : 48.0 KHz
Bit depth : 16 bits
Compression mode : Lossy
Stream size : 68.5 MiB (10%)
Alignment : Split accross interleaves
Interleave, duration : 40 ms (1.00 video frame)
Interleave, preload duration : 500 ms
Релиз от:
[Profile] [PM]
Display posts:    
Reply to topic

Current time is: 22-Nov 09:05

All times are UTC + 3



You cannot post new topics in this forum
You cannot reply to topics in this forum
You cannot edit your posts in this forum
You cannot delete your posts in this forum
You cannot vote in polls in this forum
You cannot attach files in this forum
You cannot download files in this forum