Таисия [1-4 серии из 4] (2018) SATRip-AVC от Files-x

Reply to topic
 
Author Message

Nicodem ®

Gender: Male

Longevity: 10 months 1 day

Posts: 223

Post 25-Nov-2018 20:53

[Quote]

Таисия
Год выпуска: 2018
Жанр: Мелодрама
Выпущено: Россия, Украина, Киевтелефильм, Armada FILMS
Режиссер: Валерий Ибрагимов
В ролях: Евгения Нохрина, Дмитрий Белякин, Алексей Зубков, Анна Казючиц, Алексей Тритенко, Анатолий Зиновенко
О фильме: Таисия живёт в посёлке, затерянном среди непроходимых лесов и совершенно оторванном от цивилизации. Здесь почти нет жителей, отсутствует мобильная связь, а единственную дорогу, связывающую поселок с городом, периодически размывает, и тогда по ней невозможно проехать. Таисия – сирота. Единственный человек, к которому она может обратиться за советом, – пожилая соседка Василиса. У девушки есть поклонник – местный хулиган и браконьер Вадим, недавно вышедший из тюрьмы. Она не испытывает к нему ни малейшей симпатии. Но в такой глуши защитить Таю от его ухаживаний некому.Все меняется, когда в поселок приезжает молодой талантливый художник Сергей...
Качество: SATRip-AVC
Видео: MPEG-4 AVC, ~ 1500 Кбит/с, 720x400, 25 кадр/с
Аудио: AC3, 2 ch, 192 Кбит/с
Продолжительность: 4 х 00:51:00
Перевод: Не требуется
Cубтитры: Украинские

Скриншоты


MediaInfo

General
Unique ID : 205228442789684486515661872602031632645 (0x9A658F727FAB3599B0EBE47A0894B105)
Complete name : C:\Users\DOM\Downloads\Taisija.(2018).SATRip.(AVC).Files-x\01.Таисия.(2018).SATRip.(AVC).by.Серый1779.Files-x.mkv
Format : Matroska
File size : 604 MiB
Duration : 49mn 52s
Overall bit rate : 1 694 Kbps
Encoded date : UTC 2018-09-16 00:14:25
Writing application : mkvmerge v7.8.0 ('River Man') 32bit built on Apr 3 2015 12:11:22
Writing library : libebml v1.3.1 + libmatroska v1.4.2
Video
ID : 1
Format : AVC
Format/Info : Advanced Video Codec
Format profile : High@L4.1
Format settings, CABAC : Yes
Format settings, ReFrames : 9 frames
Codec ID : V_MPEG4/ISO/AVC
Duration : 49mn 52s
Bit rate : 1 500 Kbps
Width : 720 pixels
Height : 400 pixels
Display aspect ratio : 16:9
Frame rate : 25.000 fps
Color space : YUV
Chroma subsampling : 4:2:0
Bit depth : 8 bits
Scan type : Progressive
Bits/(Pixel*Frame) : 0.208
Stream size : 524 MiB (87%)
Writing library : x264 core 146 r2538 121396c
Encoding settings : cabac=1 / ref=9 / deblock=1:-3:-3 / analyse=0x3:0x133 / me=umh / subme=9 / psy=1 / psy_rd=1.00:0.15 / mixed_ref=1 / me_range=32 / chroma_me=1 / trellis=2 / 8x8dct=1 / cqm=0 / deadzone=21,11 / fast_pskip=0 / chroma_qp_offset=-3 / threads=18 / lookahead_threads=3 / sliced_threads=0 / nr=0 / decimate=1 / interlaced=0 / bluray_compat=0 / constrained_intra=0 / bframes=9 / b_pyramid=2 / b_adapt=2 / b_bias=0 / direct=1 / weightb=1 / open_gop=0 / weightp=2 / keyint=250 / keyint_min=25 / scenecut=40 / intra_refresh=0 / rc=2pass / mbtree=0 / bitrate=1500 / ratetol=1.0 / qcomp=0.60 / qpmin=0 / qpmax=69 / qpstep=4 / cplxblur=20.0 / qblur=0.5 / ip_ratio=1.40 / pb_ratio=1.30 / aq=2:1.00
Color primaries : BT.470-6 System B, BT.470-6 System G, BT.601-6 625, BT.1358 625, BT.1700 625 PAL, BT.1700 625 SECAM
Transfer characteristics : BT.470-6 System B, BT.470-6 System G
Matrix coefficients : BT.470-6 System B, BT.470-6 System G, BT.601-6 625, BT.1358 625, BT.1700 625 PAL, BT.1700 625 SECAM, IEC 61966-2-4 601
Audio
ID : 2
Format : AC-3
Format/Info : Audio Coding 3
Mode extension : CM (complete main)
Codec ID : A_AC3
Duration : 49mn 52s
Bit rate mode : Constant
Bit rate : 192 Kbps
Channel(s) : 2 channels
Channel positions : Front: L R
Sampling rate : 48.0 KHz
Bit depth : 16 bits
Compression mode : Lossy
Stream size : 68.5 MiB (11%)
Релиз от:
[Profile] [PM]
Display posts:    
Reply to topic

Current time is: 18-Sep 23:58

All times are UTC + 3



You cannot post new topics in this forum
You cannot reply to topics in this forum
You cannot edit your posts in this forum
You cannot delete your posts in this forum
You cannot vote in polls in this forum
You cannot attach files in this forum
You cannot download files in this forum