Танцы [5 сезон: 1-21 выпуски из 21] (2018) WEBRip 720p от Files-x

Reply to topic
 
Author Message

bond74 ®

Gender: Male

Longevity: 9 months 4 days

Posts: 576

Post 26-Nov-2018 00:22

[Quote]

Танцы Год выпуска: 2018
Жанр: Реалити-шоу, танцы, развлекательный, хореография
Выпущено: Россия, Comedy Club Production, Телеканал ТНТ
Режиссер: Анатолий Шпульников
В ролях: Мигель, Татьяна Денисова (I), Егор Дружинин
Ведущий: Ляйсан Утяшева
О фильме: Пятый сезон станет самым необычным и интригующим - впервые в истории в нем будет сразу три наставника! Отбирать участников будут Мигель, Татьяна Денисова и вернувшийся в проект Егор Дружинин. Новый сезон соберет в себе все лучшее, что было в проекте, продолжит развивать танцевальную культуру, искать таланты по всей стране и показывать зрителям запредельные танцы! Появление в проекте третьего наставника кардинально изменит многие аспекты шоу. Теперь за звание лучшего танцовщика страны и главный приз 3 000 000 рублей будут бороться участники трёх команд. А значит – после каждого концерта шоу будут покидать не по два, а по три участника. Шансы задержаться в проекте существенно снизятся – никакого времени на раскачку, в борьбу придется включаться с самого начала. Конкурентная борьба в этом сезоне поднимется на совершенно новый уровень. И не только между танцовщиками...
Качество: WEBRip 720p
Видео: MPEG-4 AVC, ~ 3 523 Кбит/с, 1280х720, 25 кадр/с
Аудио: AC3, 2 ch, 192 Кбит/с
Продолжительность: 21 x ~ 01:34:00
Перевод: Не требуется
Субтитры: нет

Скриншоты

MediaInfo

General
General
Unique ID : 221464743795266034979447351452177454399 (0xA69C8EE43CEB7E6C92D416F4C376D53F)
Complete name : H:\Tancy .(Season 5). WEB-DL 720p. Files-x\Tancy.s05.e04.WEB-DL 720p. Files-x..mkv
Format : Matroska
File size : 2.49 GiB
Duration : 1h 34mn
Overall bit rate : 3 790 Kbps
Encoded date : UTC 2018-09-15 21:13:06
Writing application : mkvmerge v7.8.0 ('River Man') 32bit built on Apr 3 2015 12:11:22
Writing library : libebml v1.3.1 + libmatroska v1.4.2
Video
ID : 1
Format : AVC
Format/Info : Advanced Video Codec
Format profile : High@L3.1
Format settings, CABAC : Yes
Format settings, ReFrames : 1 frame
Codec ID : V_MPEG4/ISO/AVC
Duration : 1h 34mn
Bit rate : 3 523 Kbps
Width : 1 280 pixels
Height : 720 pixels
Display aspect ratio : 16:9
Frame rate : 25.000 fps
Standard : Component
Color space : YUV
Chroma subsampling : 4:2:0
Bit depth : 8 bits
Scan type : Progressive
Bits/(Pixel*Frame) : 0.153
Stream size : 2.32 GiB (93%)
Audio
ID : 2
Format : AC-3
Format/Info : Audio Coding 3
Mode extension : CM (complete main)
Codec ID : A_AC3
Duration : 1h 34mn
Bit rate mode : Constant
Bit rate : 192 Kbps
Channel(s) : 2 channels
Channel positions : Front: L R
Sampling rate : 44.1 KHz
Bit depth : 16 bits
Compression mode : Lossy
Delay relative to video : 9ms
Stream size : 129 MiB (5%)
Релиз от:
[Profile] [PM]
Display posts:    
Reply to topic

Current time is: 19-Aug 20:30

All times are UTC + 3



You cannot post new topics in this forum
You cannot reply to topics in this forum
You cannot edit your posts in this forum
You cannot delete your posts in this forum
You cannot vote in polls in this forum
You cannot attach files in this forum
You cannot download files in this forum