Танцы [5 сезон: 1-21 выпуски из 21] (2018) WEBRip от Files-x

Reply to topic
 
Author Message

bond74 ®

Gender: Male

Longevity: 11 months

Posts: 680

Post 26-Nov-2018 00:33

[Quote]

Танцы Год выпуска: 2018
Жанр: Реалити-шоу, танцы, развлекательный, хореография
Выпущено: Россия, Comedy Club Production, Телеканал ТНТ
Режиссер: Анатолий Шпульников
В ролях: Мигель, Татьяна Денисова (I), Егор Дружинин
Ведущий: Ляйсан Утяшева
О фильме: Пятый сезон станет самым необычным и интригующим - впервые в истории в нем будет сразу три наставника! Отбирать участников будут Мигель, Татьяна Денисова и вернувшийся в проект Егор Дружинин. Новый сезон соберет в себе все лучшее, что было в проекте, продолжит развивать танцевальную культуру, искать таланты по всей стране и показывать зрителям запредельные танцы! Появление в проекте третьего наставника кардинально изменит многие аспекты шоу. Теперь за звание лучшего танцовщика страны и главный приз 3 000 000 рублей будут бороться участники трёх команд. А значит – после каждого концерта шоу будут покидать не по два, а по три участника. Шансы задержаться в проекте существенно снизятся – никакого времени на раскачку, в борьбу придется включаться с самого начала. Конкурентная борьба в этом сезоне поднимется на совершенно новый уровень. И не только между танцовщиками...
Качество: WEBLRip
Видео: XviD, ~ 1 797 Кбит/с, 720x400, 25 кадр/с
Аудио: AC3, 2 ch, 192 Кбит/с
Продолжительность: 21 x ~ 01:34:00
Перевод: Не требуется
Субтитры: нет

Скриншоты

MediaInfo

General
General
Complete name : H:\шоу\Tancy .(Season 5). WEB-DLRip. Files-x\Tancy.s05.e03.WEB-DLRip.Files-x.avi
Format : AVI
Format/Info : Audio Video Interleave
File size : 1.32 GiB
Duration : 1h 34mn
Overall bit rate : 1 999 Kbps
Writing application : VirtualDubMod 1.5.10.3 | www.virtualdub-fr.org || (build 2550/release)
Writing library : VirtualDubMod build 2550/release
Video
ID : 0
Format : MPEG-4 Visual
Format profile : Advanced Simple@L5
Format settings, BVOP : 1
Format settings, QPel : Yes
Format settings, GMC : No warppoints
Format settings, Matrix : Default (MPEG)
Codec ID : XVID
Codec ID/Hint : XviD
Duration : 1h 34mn
Bit rate : 1 797 Kbps
Width : 720 pixels
Height : 400 pixels
Display aspect ratio : 16:9
Frame rate : 25.000 fps
Color space : YUV
Chroma subsampling : 4:2:0
Bit depth : 8 bits
Scan type : Progressive
Compression mode : Lossy
Bits/(Pixel*Frame) : 0.250
Stream size : 1.19 GiB (90%)
Writing library : XviD 73
Audio
ID : 1
Format : AC-3
Format/Info : Audio Coding 3
Mode extension : CM (complete main)
Codec ID : 2000
Duration : 1h 34mn
Bit rate mode : Constant
Bit rate : 192 Kbps
Channel(s) : 2 channels
Channel positions : Front: L R
Sampling rate : 48.0 KHz
Bit depth : 16 bits
Compression mode : Lossy
Stream size : 130 MiB (10%)
Alignment : Split accross interleaves
Interleave, duration : 40 ms (1.00 video frame)
Interleave, preload duration : 500 ms
Релиз от:
[Profile] [PM]
Display posts:    
Reply to topic

Current time is: 13-Nov 21:32

All times are UTC + 3



You cannot post new topics in this forum
You cannot reply to topics in this forum
You cannot edit your posts in this forum
You cannot delete your posts in this forum
You cannot vote in polls in this forum
You cannot attach files in this forum
You cannot download files in this forum