Человек-паук: Возвращение домой / Spider-Man: Homecoming (2017) BDRip | Лицензия

Reply to topic
 
Author Message

Monk ®

Gender: Male

Longevity: 5 months 11 days

Posts: 5608

Location: Казань

Post 26-Nov-2018 10:03

[Quote]

Человек-паук: Возвращение домой / Spider-Man: Homecoming Год выпуска: 2017
Жанр: Фантастика, боевик, приключения
Выпущено: США, Columbia Pictures, Marvel Studios Inc., Pascal Pictures
Режиссер: Джон Уоттс
В ролях: Том Холланд (II), Роберт Дауни мл., Майкл Китон, Мариса Томей, Джон Фавро, Джейкоб Баталон, Зендая Колеман, Лора Хэрриер, Тони Револори, Дональд Гловер
О фильме: Одного простого паренька кусает радиоактивный паук. Вскоре после укуса паук умирает, а паренек приобретает возможность бегать по потолку, бросать в людей и на стены клейкую паутину, начинает носить стильное трико и всячески демонстрировать свою любовь к насекомым. Немного позже нашего героя находит Железный Человек и берет шефство над его альтернативными талантами. Стремясь доказать свою профпригодность для зачисления в отряд Мстителей, новоявленный борец за справедливость вступает в неравную схватку с бандой охотников за цветным металлом, оставшимся после нападения космических захватчиков на Нью-Йорк. Дело осложняется тем, что бандиты не только научились мастерить атомные ускорители из образцов инопланетных технологий и детского конструктора, но и собираются самым решительным образом защищать свой маленький бизнес.

Качество: BDRip
Видео: MPEG-4 AVC, 1280 Кбит/с, 720x300
Аудио: Русский (AC3, 6 ch, 448 Кбит/с)
Продолжительность: 02:13:27
Перевод: Дублированный [Лицензия]
Субтитры: Русские, английские

Скриншоты

MediaInfo

Общее
Уникальный идентификатор : 174793821400746008768647414911278435927 (0x838010C2D5F199F6B92F484E8C0ACE57)
Полное имя : C:\Kinozal.tv\Видео 2\Spider.Man.Homecoming.2017.Lic.BDRip.mkv
Формат : Matroska
Версия формата : Version 4 / Version 2
Размер файла : 1,61 Гбайт
Продолжительность : 2 ч. 13 м.
Общий поток : 1730 Кбит/сек
Дата кодирования : UTC 2017-10-28 10:05:28
Программа кодирования : mkvmerge v17.0.0 ('Be Ur Friend') 64-bit
Библиотека кодирования : libebml v1.3.5 + libmatroska v1.4.8
Видео
Идентификатор : 1
Формат : AVC
Формат/Информация : Advanced Video Codec
Профиль формата : High@L4.1
Параметр CABAC формата : Да
Параметр ReFrames формата : 10 кадров
Идентификатор кодека : V_MPEG4/ISO/AVC
Продолжительность : 2 ч. 13 м.
Битрейт : 1280 Кбит/сек
Ширина : 720 пикселей
Высота : 300 пикселей
Соотношение сторон : 2,40:1
Режим частоты кадров : Постоянный
Частота кадров : 23,976 (24000/1001) кадра/сек
Цветовое пространство : YUV
Субдискретизация насыщенности : 4:2:0
Битовая глубина : 8 бит
Тип развёртки : Прогрессивная
Бит/(Пиксели*Кадры) : 0.247
Размер потока : 1,19 Гбайт (74%)
Библиотека кодирования : x264 core 152 r2851M ba24899
Настройки программы : cabac=1 / ref=10 / deblock=1:-3:-3 / analyse=0x3:0x133 / me=umh / subme=10 / psy=1 / psy_rd=1.00:0.00 / mixed_ref=1 / me_range=48 / chroma_me=1 / trellis=2 / 8x8dct=1 / cqm=1 / deadzone=21,11 / fast_pskip=0 / chroma_qp_offset=-4 / threads=6 / lookahead_threads=1 / sliced_threads=0 / nr=0 / decimate=0 / interlaced=0 / bluray_compat=0 / constrained_intra=0 / bframes=8 / b_pyramid=2 / b_adapt=2 / b_bias=0 / direct=3 / weightb=1 / open_gop=0 / weightp=2 / keyint=230 / keyint_min=23 / scenecut=40 / intra_refresh=0 / rc=2pass / mbtree=0 / bitrate=1280 / ratetol=1.0 / qcomp=0.60 / qpmin=5 / qpmax=69 / qpstep=4 / cplxblur=20.0 / qblur=0.5 / ip_ratio=1.40 / pb_ratio=1.30 / aq=1:1.00
Язык : English
Default : Да
Forced : Нет
Аудио
Идентификатор : 2
Формат : AC-3
Формат/Информация : Audio Coding 3
Параметр Endianness формата : Big
Идентификатор кодека : A_AC3
Продолжительность : 2 ч. 13 м.
Вид битрейта : Постоянный
Битрейт : 448 Кбит/сек
Каналы : 6 каналов
Расположение каналов : Front: L C R, Side: L R, LFE
Частота : 48,0 КГц
Частота кадров : 31,250 кадров/сек (1536 spf)
Битовая глубина : 16 бит
Метод сжатия : С потерями
Размер потока : 428 Мбайт (26%)
Заголовок : Dub
Язык : Russian
ServiceKind/String : Complete Main
Default : Да
Forced : Нет
Текст #1
Идентификатор : 3
Формат : UTF-8
Идентификатор кодека : S_TEXT/UTF8
Идентификатор кодека/Информация : UTF-8 Plain Text
Продолжительность : 2 ч. 9 м.
Битрейт : 0 бит/сек
ElementCount : 17
Размер потока : 825 байт (0%)
Заголовок : Forced [iTunes]
Язык : Russian
Default : Да
Forced : Нет
Текст #2
Идентификатор : 4
Формат : UTF-8
Идентификатор кодека : S_TEXT/UTF8
Идентификатор кодека/Информация : UTF-8 Plain Text
Продолжительность : 2 ч. 12 м.
Битрейт : 104 бит/сек
ElementCount : 1825
Размер потока : 102 Кбайт (0%)
Заголовок : Full [iTunes]
Язык : Russian
Default : Нет
Forced : Нет
Текст #3
Идентификатор : 5
Формат : UTF-8
Идентификатор кодека : S_TEXT/UTF8
Идентификатор кодека/Информация : UTF-8 Plain Text
Продолжительность : 5 с. 130 мс.
Битрейт : 79 бит/сек
ElementCount : 2
Размер потока : 51,0 байт (0%)
Заголовок : Forced [iTunes]
Язык : English
Default : Нет
Forced : Нет
Текст #4
Идентификатор : 6
Формат : UTF-8
Идентификатор кодека : S_TEXT/UTF8
Идентификатор кодека/Информация : UTF-8 Plain Text
Продолжительность : 2 ч. 12 м.
Битрейт : 64 бит/сек
ElementCount : 1790
Размер потока : 62,3 Кбайт (0%)
Заголовок : Full [iTunes]
Язык : English
Default : Нет
Forced : Нет
Меню
00:00:00.000 : en:1
00:05:33.083 : en:2
00:14:23.279 : en:3
00:20:49.999 : en:4
00:26:18.243 : en:5
00:36:26.976 : en:6
00:46:02.926 : en:7
00:54:39.192 : en:8
01:05:09.280 : en:9
01:12:02.276 : en:10
01:20:19.189 : en:11
01:29:40.542 : en:12
01:36:55.894 : en:13
01:44:43.152 : en:14
01:50:30.249 : en:15
01:57:52.566 : en:16
[Profile] [PM]
Display posts:    
Reply to topic

Current time is: 25-Apr 17:51

All times are UTC + 3



You cannot post new topics in this forum
You cannot reply to topics in this forum
You cannot edit your posts in this forum
You cannot delete your posts in this forum
You cannot vote in polls in this forum
You cannot attach files in this forum
You cannot download files in this forum