Человек-паук: Возвращение домой / Spider-Man: Homecoming (2017) BDRip 720p | Лицензия

Reply to topic
 
Author Message

Monk ®

Gender: Male

Longevity: 6 months 8 days

Posts: 6383

Location: Казань

Post 26-Nov-2018 10:48

[Quote]

Человек-паук: Возвращение домой / Spider-Man: Homecoming Год выпуска: 2017
Жанр: Фантастика, боевик, приключения
Выпущено: США, Columbia Pictures, Marvel Studios Inc., Pascal Pictures
Режиссер: Джон Уоттс
В ролях: Том Холланд (II), Роберт Дауни мл., Майкл Китон, Мариса Томей, Джон Фавро, Джейкоб Баталон, Зендая Колеман, Лора Хэрриер, Тони Револори, Дональд Гловер
О фильме: Одного простого паренька кусает радиоактивный паук. Вскоре после укуса паук умирает, а паренек приобретает возможность бегать по потолку, бросать в людей и на стены клейкую паутину, начинает носить стильное трико и всячески демонстрировать свою любовь к насекомым. Немного позже нашего героя находит Железный Человек и берет шефство над его альтернативными талантами. Стремясь доказать свою профпригодность для зачисления в отряд Мстителей, новоявленный борец за справедливость вступает в неравную схватку с бандой охотников за цветным металлом, оставшимся после нападения космических захватчиков на Нью-Йорк. Дело осложняется тем, что бандиты не только научились мастерить атомные ускорители из образцов инопланетных технологий и детского конструктора, но и собираются самым решительным образом защищать свой маленький бизнес.

Качество: BDRip 720p
Видео: MPEG-4 AVC, 5503 Кбит/с, 1280x534
Аудио: Русский (AC3, 6 ch, 448 Кбит/с), английский (DTS, 6 ch, 1510 Кбит/с)
Продолжительность: 02:13:27
Перевод: Дублированный [Лицензия]
Субтитры: Русские, английские

Скриншоты



MediaInfo

General
Unique ID : 192506226523038552796612487252763599598 (0x90D359C1D9AEEEDCA3DE75722C5DE2EE)
Complete name : G:\Spider.Man.Homecoming.2017.Lic.BDRip.720p.ExKinoRay.mkv
Format : Matroska
Format version : Version 4 / Version 2
File size : 6.96 GiB
Duration : 2 h 13 min
Overall bit rate : 7 462 kb/s
Encoded date : UTC 2017-10-28 07:51:29
Writing application : mkvmerge v17.0.0 ('Be Ur Friend') 64-bit
Writing library : libebml v1.3.5 + libmatroska v1.4.8
Video
ID : 1
Format : AVC
Format/Info : Advanced Video Codec
Format profile : High@L4.1
Format settings : CABAC / 12 Ref Frames
Format settings, CABAC : Yes
Format settings, RefFrames : 12 frames
Codec ID : V_MPEG4/ISO/AVC
Duration : 2 h 13 min
Bit rate : 5 503 kb/s
Width : 1 280 pixels
Height : 534 pixels
Display aspect ratio : 2.40:1
Frame rate mode : Constant
Frame rate : 23.976 (24000/1001) FPS
Color space : YUV
Chroma subsampling : 4:2:0
Bit depth : 8 bits
Scan type : Progressive
Bits/(Pixel*Frame) : 0.336
Stream size : 5.13 GiB (74%)
Writing library : x264 core 148 r2597 e86f3a1
Encoding settings : cabac=1 / ref=12 / deblock=1:0:0 / analyse=0x3:0x113 / me=umh / subme=10 / psy=1 / psy_rd=1.05:0.10 / mixed_ref=1 / me_range=32 / chroma_me=1 / trellis=2 / 8x8dct=1 / cqm=0 / deadzone=21,11 / fast_pskip=0 / chroma_qp_offset=-2 / threads=12 / lookahead_threads=1 / sliced_threads=0 / nr=0 / decimate=1 / interlaced=0 / bluray_compat=0 / constrained_intra=0 / bframes=6 / b_pyramid=2 / b_adapt=2 / b_bias=0 / direct=3 / weightb=1 / open_gop=0 / weightp=2 / keyint=250 / keyint_min=23 / scenecut=40 / intra_refresh=0 / rc=2pass / mbtree=0 / bitrate=5503 / ratetol=1.0 / qcomp=0.70 / qpmin=0 / qpmax=69 / qpstep=4 / cplxblur=20.0 / qblur=0.5 / ip_ratio=1.40 / pb_ratio=1.30 / aq=2:1.00
Language : English
Default : Yes
Forced : No
Audio #1
ID : 2
Format : AC-3
Format/Info : Audio Coding 3
Format settings, Endianness : Big
Codec ID : A_AC3
Duration : 2 h 13 min
Bit rate mode : Constant
Bit rate : 448 kb/s
Channel(s) : 6 channels
Channel positions : Front: L C R, Side: L R, LFE
Sampling rate : 48.0 kHz
Frame rate : 31.250 FPS (1536 SPF)
Bit depth : 16 bits
Compression mode : Lossy
Stream size : 428 MiB (6%)
Title : Dub
Language : Russian
Service kind : Complete Main
Default : Yes
Forced : No
Audio #2
ID : 3
Format : DTS
Format/Info : Digital Theater Systems
Mode : 16
Format settings, Endianness : Big
Codec ID : A_DTS
Duration : 2 h 13 min
Bit rate mode : Constant
Bit rate : 1 509 kb/s
Channel(s) : 6 channels
Channel positions : Front: L C R, Side: L R, LFE
Sampling rate : 48.0 kHz
Frame rate : 93.750 FPS (512 SPF)
Bit depth : 24 bits
Compression mode : Lossy
Stream size : 1.41 GiB (20%)
Title : Original
Language : English
Default : No
Forced : No
Text #1
ID : 4
Format : UTF-8
Codec ID : S_TEXT/UTF8
Codec ID/Info : UTF-8 Plain Text
Duration : 2 h 9 min
Bit rate : 0 b/s
Count of elements : 17
Stream size : 825 Bytes (0%)
Title : Forced [iTunes]
Language : Russian
Default : Yes
Forced : No
Text #2
ID : 5
Format : UTF-8
Codec ID : S_TEXT/UTF8
Codec ID/Info : UTF-8 Plain Text
Duration : 2 h 12 min
Bit rate : 104 b/s
Count of elements : 1825
Stream size : 102 KiB (0%)
Title : Full [iTunes]
Language : Russian
Default : No
Forced : No
Text #3
ID : 6
Format : UTF-8
Codec ID : S_TEXT/UTF8
Codec ID/Info : UTF-8 Plain Text
Duration : 5 s 130 ms
Bit rate : 79 b/s
Count of elements : 2
Stream size : 51.0 Bytes (0%)
Title : Forced [iTunes]
Language : English
Default : No
Forced : No
Text #4
ID : 7
Format : UTF-8
Codec ID : S_TEXT/UTF8
Codec ID/Info : UTF-8 Plain Text
Duration : 2 h 12 min
Bit rate : 64 b/s
Count of elements : 1790
Stream size : 62.3 KiB (0%)
Title : Full [iTunes]
Language : English
Default : No
Forced : No
Menu
00:00:00.000 : en:1
00:05:33.083 : en:2
00:14:23.279 : en:3
00:20:49.999 : en:4
00:26:18.243 : en:5
00:36:26.976 : en:6
00:46:02.926 : en:7
00:54:39.192 : en:8
01:05:09.280 : en:9
01:12:02.276 : en:10
01:20:19.189 : en:11
01:29:40.542 : en:12
01:36:55.894 : en:13
01:44:43.152 : en:14
01:50:30.249 : en:15
01:57:52.566 : en:16
[Profile] [PM]
Display posts:    
Reply to topic

Current time is: 23-May 08:55

All times are UTC + 3



You cannot post new topics in this forum
You cannot reply to topics in this forum
You cannot edit your posts in this forum
You cannot delete your posts in this forum
You cannot vote in polls in this forum
You cannot attach files in this forum
You cannot download files in this forum