Одна на двоих [1-4 серии из 4] (2018) WEB-DL 720p от Files-x

Reply to topic
 
Author Message

Nicodem ®

Gender: Male

Longevity: 6 months 7 days

Posts: 178

Post 17-Nov-2018 20:50

[Quote]

Одна на двоих
Год выпуска: 2018
Жанр: Мелодрама
Выпущено: Украина, Vileton production, ЭйБиСи Фильм Украина
Режиссер: Владимир Янощук
В ролях: Алина Сергеева, Александр Ратников, Дмитрий Сова, Андрей Исаенко, Ксения Баша-Довженко, Владислав Демиденко, Анна Расстальная, Владимир Миняйло, Олег Щербина (II), Кристина Мельниченко, Марина Куклина
О фильме: Оля и Петя – ровесники и соседи с детства: вместе росли, вместе пережили потерю близких в одной аварии (Олиной мамы и Петиного отца), вместе попали в детдом. Детская дружба со временем перерастает в любовь, и к своим восемнадцати молодые люди уверены, что и дальше пойдут по жизни вместе, готовятся к свадьбе. Но в их планы вмешивается Илья Горелов, сын влиятельного отца, привыкший получать то, что хочет, по первому требованию. На его ухаживания Оля отвечает отказом. И тогда Илья делает все так, чтобы убрать с дороги соперника, ведь одна на двоих никак не делится. В итоге, после череды событий, подстроенных Ильей, Петр попадает за решетку, а Оля вынуждена принять предложение Горелова и стать его женой...Что важнее – чувство долга или любовь, некогда преданная? Надо ли мстить за прошлые обиды или достаточно попытки восстановить справедливость?
Качество: WEB-DL 720p
Видео: MPEG-4 AVC, ~ 3500 Кбит/с, 1280х720, 25 Кадр/с
Аудио: AC3, 2 ch, 192 Кбит/с
Продолжительность: 4 х 00:49:00
Перевод: Не требуется
Cубтитры: нет

Скриншоты



MediaInfo

Общее
Уникальный идентификатор : 170269583802080159836650659926440634149 (0x8018BAA027C9BEDA469F100041036725)
Полное имя : C:\Users\DOM\Downloads\Одна на двоих.2018.WEB-DL (720p).by.Nicodem.Files-x\01.Одна на двоих.2018.WEB-DL (720p).by.Nicodem.Files-x.mkv
Формат : Matroska
Размер файла : 1,27 Гбайт
Продолжительность : 49 м.
Общий поток : 3681 Кбит/сек
Программа кодирования : Lavf56.36.100
Библиотека кодирования : Lavf56.36.100
Видео
Идентификатор : 1
Формат : AVC
Формат/Информация : Advanced Video Codec
Профиль формата : High@L4.1
Параметр CABAC формата : Да
Параметр ReFrames формата : 5 кадров
Идентификатор кодека : V_MPEG4/ISO/AVC
Продолжительность : 49 м.
Битрейт : 3500 Кбит/сек
Ширина : 1280 пикс.
Высота : 720 пикс.
Соотношение сторон : 16:9
Режим частоты кадров : Переменный
Частота кадров : 25,000 кадр/сек
Цветовое пространство : YUV
Подвыборка цветности : 4:2:0
Битовая глубина : 8 бит
Тип развёртки : Прогрессивная
Бит/(Пиксели*Кадры) : 0.152
Размер потока : 1,18 Гбайт (93%)
Библиотека кодирования : x264 core 148
Настройки программы : cabac=1 / ref=5 / deblock=1:0:0 / analyse=0x3:0x113 / me=hex / subme=8 / psy=1 / psy_rd=1.00:0.00 / mixed_ref=1 / me_range=16 / chroma_me=1 / trellis=2 / 8x8dct=1 / cqm=0 / deadzone=21,11 / fast_pskip=1 / chroma_qp_offset=-2 / threads=22 / lookahead_threads=3 / sliced_threads=0 / nr=0 / decimate=1 / interlaced=0 / bluray_compat=0 / constrained_intra=0 / bframes=3 / b_pyramid=2 / b_adapt=1 / b_bias=0 / direct=3 / weightb=1 / open_gop=0 / weightp=2 / keyint=250 / keyint_min=25 / scenecut=0 / intra_refresh=0 / rc_lookahead=50 / rc=abr / mbtree=1 / bitrate=3500 / ratetol=1.0 / qcomp=0.60 / qpmin=0 / qpmax=69 / qpstep=4 / ip_ratio=1.40 / aq=1:1.00
Язык : English
Аудио
Идентификатор : 2
Формат : AC-3
Формат/Информация : Audio Coding 3
Расширение режима : CM (complete main)
Идентификатор кодека : A_AC3
Продолжительность : 49 м.
Вид битрейта : Постоянный
Битрейт : 192 Кбит/сек
Каналы : 2 канала
Расположение каналов : Front: L R
Частота : 44,1 КГц
Битовая глубина : 16 бит
Метод сжатия : С потерями
Задержка видео : 1 м. 5 с.
Размер потока : 67,8 Мбайт (5%)
Язык : English / un
Релиз от:
[Profile] [PM]
Display posts:    
Reply to topic

Current time is: 24-May 17:10

All times are UTC + 3



You cannot post new topics in this forum
You cannot reply to topics in this forum
You cannot edit your posts in this forum
You cannot delete your posts in this forum
You cannot vote in polls in this forum
You cannot attach files in this forum
You cannot download files in this forum