Одна на двоих [1-4 серии из 4] (2018) WEB-DLRip от Files-x

Reply to topic
 
Author Message

Nicodem ®

Gender: Male

Longevity: 9 months 7 days

Posts: 204

Post 17-Nov-2018 20:51

[Quote]

Одна на двоих
Год выпуска: 2018
Жанр: Мелодрама
Выпущено: Украина, Vileton production, ЭйБиСи Фильм Украина
Режиссер: Владимир Янощук
В ролях: Алина Сергеева, Александр Ратников, Дмитрий Сова, Андрей Исаенко, Ксения Баша-Довженко, Владислав Демиденко, Анна Расстальная, Владимир Миняйло, Олег Щербина (II), Кристина Мельниченко, Марина Куклина
О фильме: Оля и Петя – ровесники и соседи с детства: вместе росли, вместе пережили потерю близких в одной аварии (Олиной мамы и Петиного отца), вместе попали в детдом. Детская дружба со временем перерастает в любовь, и к своим восемнадцати молодые люди уверены, что и дальше пойдут по жизни вместе, готовятся к свадьбе. Но в их планы вмешивается Илья Горелов, сын влиятельного отца, привыкший получать то, что хочет, по первому требованию. На его ухаживания Оля отвечает отказом. И тогда Илья делает все так, чтобы убрать с дороги соперника, ведь одна на двоих никак не делится. В итоге, после череды событий, подстроенных Ильей, Петр попадает за решетку, а Оля вынуждена принять предложение Горелова и стать его женой...Что важнее – чувство долга или любовь, некогда преданная? Надо ли мстить за прошлые обиды или достаточно попытки восстановить справедливость?
Качество: WEB-DLRip
Видео: XviD, ~ 1782 Кбит/с, 720x400, 1280х720, 25 Кадр/с
Аудио: AC3, 2 ch, 192 Кбит/с
Продолжительность: 4 х 00:49:00
Перевод: Не требуется
Cубтитры: нет

Скриншоты





MediaInfo

Общее
Полное имя : C:\Users\DOM\Downloads\Одна на двоих.2018.WEB-DLRip.by.Nicodem.Files-x\01.Одна на двоих.2018.WEB-DLRip.by.Nicodem.Files-x.avi
Формат : AVI
Формат/Информация : Audio Video Interleave
Размер файла : 700 Мбайт
Продолжительность : 49 м.
Общий поток : 1984 Кбит/сек
Программа кодирования : VirtualDubMod 1.5.10.3 | www.virtualdub-fr.org || (build 2550/release)
Библиотека кодирования : VirtualDubMod build 2550/release
Видео
Идентификатор : 0
Формат : MPEG-4 Visual
Профиль формата : Advanced Simple@L5
Параметр BVOP формата : 1
Параметр QPel формата : Нет
Параметр GMC формата : Без точки перехода
Параметр матрицы формата : Выборочная
Идентификатор кодека : XVID
Идентификатор кодека/Подсказка : XviD
Продолжительность : 49 м.
Битрейт : 1782 Кбит/сек
Ширина : 720 пикс.
Высота : 400 пикс.
Соотношение сторон : 16:9
Частота кадров : 25,000 кадр/сек
Цветовое пространство : YUV
Подвыборка цветности : 4:2:0
Битовая глубина : 8 бит
Тип развёртки : Прогрессивная
Метод сжатия : С потерями
Бит/(Пиксели*Кадры) : 0.247
Размер потока : 629 Мбайт (90%)
Библиотека кодирования : XviD 73
Аудио
Идентификатор : 1
Формат : AC-3
Формат/Информация : Audio Coding 3
Расширение режима : CM (complete main)
Идентификатор кодека : 2000
Продолжительность : 49 м.
Вид битрейта : Постоянный
Битрейт : 192 Кбит/сек
Каналы : 2 канала
Расположение каналов : Front: L R
Частота : 48,0 КГц
Битовая глубина : 16 бит
Метод сжатия : С потерями
Размер потока : 67,8 Мбайт (10%)
Выравнивание : Разделение по промежуткам
Продолжительность промежутка : 40 мс. (1,00 видеокадр)
Время предзагрузки промежутка : 500 ms
Релиз от:
[Profile] [PM]
Display posts:    
Reply to topic

Current time is: 25-Aug 09:00

All times are UTC + 3



You cannot post new topics in this forum
You cannot reply to topics in this forum
You cannot edit your posts in this forum
You cannot delete your posts in this forum
You cannot vote in polls in this forum
You cannot attach files in this forum
You cannot download files in this forum