Дочки матери [1-36 серии из 36] (2019) WEBRip от Files-x

Reply to topic
 
Author Message

papa1951deda ®

Gender: Male

Longevity: 5 months 28 days

Posts: 232

Location: Казахстан

Post 12-May-2019 21:23

[Quote]

Дочки матери Год выпуска: 2019
Жанр: Драма
Выпущено: Украина, Vavёrka Production
Режиссер: Игорь Забара
В ролях: Наталия Васько, Александр Кобзарь, Дарья Легейда, Даниил Мирешкин, Андрей Пономаренко, Богдан Буйлук, Слава Красовская, Вера Кобзарь, Татьяна Печёнкина, Олег Савкин, Олеся Власова, Анатолий Зиновенко, Сергей Кияшко, Юлия Амелькина, Мира Жучкова, Фёдор Гуринец, Елена Дудич, Константин Данилюк, Дарья Трегубова, Елена Хижная, Александр Миронов (VIII), Тамара Морозова, Артем Вильбик, Виктор Степаненко (III), Артём Емцов, Олег Романченко, Екатерина Колесник, Наталья Кленина, Светлана Бевз, Ярослав Шахторин, Любовь Бондаренко, Алёна Калиниченко, Юлия Гапчук, Мария Кочур, Мария Заныборщ, Елизавета Зайцева (II), Владимир Гончаров (III), Елена Речич, Ольга Морозова
О фильме: Прожив 17 лет Игорь и Наталья решают что их брак исчерпал себя и решают расстаться. На следующий день, после подписания документов о разводе, Игорь получил сразу два неожиданных "сюрприза". Владелец ветеринарной клиники узнал, что вскоре может стать вновь отцом, а заодно и дедушкой. Для его 42-летней жены, директора школы, известие о беременности тоже было неожиданностью, но представьте себе ее состояние, когда женщина узнает, что ее школьница дочь «залетела» от популярного хулигана в школе. Как настоящий мужчина, отец семейства не может бросить своих красавиц в трудную минуту и вынужден жить под одной крышей. Какой выход они найдут из такого необычного положения? Как изменятся их отношения?
Качество: WEBRip
Видео: XviD, ~ 1600 Кбит/с, 720x400, 25 кадр/с
Аудио: AC3, 2 ch, 192 Кбит/с
Продолжительность: 36 x ~ 00:25:42
Перевод: Не требуется
Cубтитры: нет

Скриншоты

MediaInfo

General
Complete name : D:\моё видио\Дочки-матери. 2019.WEB-DLRip. Files-x\01. Дочки-матери. 2019.WEB-DLRip. Files-x.avi
Format : AVI
Format/Info : Audio Video Interleave
File size : 332 MiB
Duration : 25mn 42s
Overall bit rate : 1 803 Kbps
Writing application : VirtualDubMod 1.5.10.3 | www.virtualdub-fr.org || (build 2550/release)
Writing library : VirtualDubMod build 2550/release
Video
ID : 0
Format : MPEG-4 Visual
Format profile : Advanced Simple@L5
Format settings, BVOP : 1
Format settings, QPel : No
Format settings, GMC : No warppoints
Format settings, Matrix : Custom
Codec ID : XVID
Codec ID/Hint : XviD
Duration : 25mn 42s
Bit rate : 1 601 Kbps
Width : 720 pixels
Height : 400 pixels
Display aspect ratio : 16:9
Frame rate : 25.000 fps
Color space : YUV
Chroma subsampling : 4:2:0
Bit depth : 8 bits
Scan type : Progressive
Compression mode : Lossy
Bits/(Pixel*Frame) : 0.222
Stream size : 295 MiB (89%)
Writing library : XviD 73
Audio
ID : 1
Format : AC-3
Format/Info : Audio Coding 3
Mode extension : CM (complete main)
Format settings, Endianness : Big
Codec ID : 2000
Duration : 25mn 42s
Bit rate mode : Constant
Bit rate : 192 Kbps
Channel(s) : 2 channels
Channel positions : Front: L R
Sampling rate : 48.0 KHz
Bit depth : 16 bits
Compression mode : Lossy
Stream size : 35.3 MiB (11%)
Alignment : Split accross interleaves
Interleave, duration : 40 ms (1.00 video frame)
Interleave, preload duration : 500 ms
Релиз от: Релиз от:
[Profile] [PM]
Display posts:    
Reply to topic

Current time is: 19-May 14:40

All times are UTC + 3



You cannot post new topics in this forum
You cannot reply to topics in this forum
You cannot edit your posts in this forum
You cannot delete your posts in this forum
You cannot vote in polls in this forum
You cannot attach files in this forum
You cannot download files in this forum