Дочки матери [1-36 серия из 36] (2019) WEBRip-AVC от Files-x

Reply to topic
 
Author Message

Серый1779 ®

Gender: Male

Longevity: 8 months 4 days

Posts: 486

Location: Украина

Post 12-May-2019 21:26

[Quote]

Дочки матери Год выпуска: 2019
Жанр: Драма, комедия, мелодрама
Выпущено: Украина, "Vavёrka Production"
Режиссер: Игорь Забара
В ролях: Наталия Васько, Александр Кобзарь, Дарья Легейда, Даниил Мирешкин, Андрей Пономаренко, Богдан Буйлук, Слава Красовская, Вера Кобзарь, Татьяна Печёнкина, Олег Савкин, Олеся Власова, Анатолий Зиновенко, Сергей Кияшко, Юлия Амелькина, Мира Жучкова, Фёдор Гуринец, Елена Дудич, Константин Данилюк, Дарья Трегубова, Елена Хижная, Александр Миронов (VIII), Тамара Морозова, Артем Вильбик, Виктор Степаненко (III), Артём Емцов, Олег Романченко, Екатерина Колесник, Наталья Кленина, Светлана Бевз, Ярослав Шахторин, Любовь Бондаренко, Алёна Калиниченко, Юлия Гапчук, Мария Кочур, Мария Заныборщ, Елизавета Зайцева (II), Владимир Гончаров (III), Елена Речич, Ольга Морозова
О фильме: Прожив 17 лет Игорь и Наталья решают что их брак исчерпал себя и решают расстаться. На следующий день, после подписания документов о разводе, Игорь получил сразу два неожиданных "сюрприза". Владелец ветеринарной клиники узнал, что вскоре может стать вновь отцом, а заодно и дедушкой.
Для его 42-летней жены, директора школы, известие о беременности тоже было неожиданностью, но представьте себе ее состояние, когда женщина узнает, что ее школьница дочь «залетела» от популярного хулигана в школе.
Как настоящий мужчина, отец семейства не может бросить своих красавиц в трудную минуту и вынужден жить под одной крышей. Какой выход они найдут из такого необычного положения? Как изменятся их отношения?
Качество: WEBRip-AVC
Видео: MPEG-4 AVC, ~ 1600 Кбит/с, 1024x576, 25 кадр/с
Аудио: AC3, 2 ch, 192 Кбит/с
Продолжительность: 36 x ~ 00:25:42
Перевод: Не требуется
Субтитры: нет

Скриншоты



MediaInfo

General
Unique ID : 249006497042377742591884330874078837327 (0xBB54E82A9AADB1F4AA71CB03B9FD3A4F)
Complete name : F:\Дочки матери.(2019).WEBRip.(AVC).Files-x\01.Дочки-матери.(2019).WEBRip.(AVC).by.Серый1779.Files-x.mkv
Format : Matroska
Format version : Version 2
File size : 329 MiB
Duration : 25 min 42 s
Overall bit rate : 1 791 kb/s
Encoded date : UTC 2019-05-12 08:28:40
Writing application : mkvmerge v7.8.0 ('River Man') 32bit built on Apr 3 2015 12:11:22
Writing library : libebml v1.3.1 + libmatroska v1.4.2
Video
ID : 1
Format : AVC
Format/Info : Advanced Video Codec
Format profile : High@L4.1
Format settings : CABAC / 9 Ref Frames
Format settings, CABAC : Yes
Format settings, RefFrames : 9 frames
Codec ID : V_MPEG4/ISO/AVC
Duration : 25 min 42 s
Bit rate : 1 600 kb/s
Width : 1 024 pixels
Height : 576 pixels
Display aspect ratio : 16:9
Frame rate mode : Constant
Frame rate : 25.000 FPS
Color space : YUV
Chroma subsampling : 4:2:0
Bit depth : 8 bits
Scan type : Progressive
Bits/(Pixel*Frame) : 0.109
Stream size : 288 MiB (87%)
Writing library : x264 core 146 r2538 121396c
Encoding settings : cabac=1 / ref=9 / deblock=1:-2:-1 / analyse=0x3:0x133 / me=umh / subme=9 / psy=1 / psy_rd=1.00:0.15 / mixed_ref=1 / me_range=32 / chroma_me=1 / trellis=2 / 8x8dct=1 / cqm=0 / deadzone=21,11 / fast_pskip=0 / chroma_qp_offset=-3 / threads=18 / lookahead_threads=3 / sliced_threads=0 / nr=0 / decimate=1 / interlaced=0 / bluray_compat=0 / constrained_intra=0 / bframes=9 / b_pyramid=2 / b_adapt=2 / b_bias=0 / direct=1 / weightb=1 / open_gop=0 / weightp=2 / keyint=250 / keyint_min=25 / scenecut=40 / intra_refresh=0 / rc=2pass / mbtree=0 / bitrate=1600 / ratetol=1.0 / qcomp=0.60 / qpmin=0 / qpmax=69 / qpstep=4 / cplxblur=20.0 / qblur=0.5 / ip_ratio=1.40 / pb_ratio=1.30 / aq=2:1.00
Default : Yes
Forced : No
Color range : Limited
Color primaries : BT.709
Transfer characteristics : BT.709
Matrix coefficients : BT.709
Audio
ID : 2
Format : AC-3
Format/Info : Audio Coding 3
Format settings, Endianness : Big
Codec ID : A_AC3
Duration : 25 min 42 s
Bit rate mode : Constant
Bit rate : 192 kb/s
Channel(s) : 2 channels
Channel positions : Front: L R
Sampling rate : 48.0 kHz
Frame rate : 31.250 FPS (1536 SPF)
Bit depth : 16 bits
Compression mode : Lossy
Stream size : 35.3 MiB (11%)
Service kind : Complete Main
Default : Yes
Forced : No
Релиз от:
[Profile] [PM]
Display posts:    
Reply to topic

Current time is: 17-Jul 10:36

All times are UTC + 3



You cannot post new topics in this forum
You cannot reply to topics in this forum
You cannot edit your posts in this forum
You cannot delete your posts in this forum
You cannot vote in polls in this forum
You cannot attach files in this forum
You cannot download files in this forum