Деньги или Позор [3 сезон: 1-8 выпуски из 8] (2018) WEBRip 720p от Files-x

Ответить на тему
 
Автор Сообщение

bond74 ®

Пол: Мужской

Стаж: 4 месяца 10 дней

Сообщений: 271

Создавать темы 26-Ноя-2018 12:29

[Цитировать]

Деньги или Позор Год выпуска: 2018
Жанр: ТВ-шоу, юмор, импровизация
Выпущено: Россия, ТНТ, Comedy Club Production
Ведущий: Мигель, Настасья Самбурская, Станислав Ярушин, Тимур Батрутдинов, Тимур Родригез
О фильме: Деньги или Позор" - самое острое комедийное шоу с участием звёзд! Только на телеканале ТНТ4! В июле! Они пойдут ради денег на всё! Каждую неделю одна знаменитость будет опозорена на всю страну и заработает 1 миллион рублей. По условиям шоу каждый звездный гость получает на руки солидную сумму денег, после чего ведущий озвучивает самые откровенные, нелепые, а главное — правдивые факты из их жизни. Если гость захочет скрыть какую-либо информацию о себе, то он может откупиться, лишившись денег. В этом случае и происходит главный выбор — деньги или позор.
Качество: WEBRip 720p
Видео: MPEG-4 AVC, ~ 3 492 Кбит/с, 1280x720, 25 кадр/с
Аудио: AC3, 2 ch, 192 Кбит/с
Продолжительность: 8 х ~ 00:25:00
Перевод: Не требуется
Субтитры: нет

Скриншоты

MediaInfo

General
General
Unique ID : 197583533489923856192379415475275384639 (0x94A534515EBADF91BB06EDA32713473F)
Complete name : H:\шоу\Деньги или Позор (2018) WEBRip720p.Files-х\03. Деньги или позор. WEBRip720p.Files-х.mkv
Format : Matroska
File size : 574 MiB
Duration : 21mn 21s
Overall bit rate : 3 759 Kbps
Encoded date : UTC 2018-08-08 08:17:35
Writing application : mkvmerge v7.8.0 ('River Man') 32bit built on Apr 3 2015 12:11:22
Writing library : libebml v1.3.1 + libmatroska v1.4.2
Video
ID : 1
Format : AVC
Format/Info : Advanced Video Codec
Format profile : High@L3.1
Format settings, CABAC : Yes
Format settings, ReFrames : 1 frame
Codec ID : V_MPEG4/ISO/AVC
Duration : 21mn 21s
Bit rate : 3 492 Kbps
Width : 1 280 pixels
Height : 720 pixels
Display aspect ratio : 16:9
Frame rate : 25.000 fps
Standard : Component
Color space : YUV
Chroma subsampling : 4:2:0
Bit depth : 8 bits
Scan type : Progressive
Bits/(Pixel*Frame) : 0.152
Stream size : 533 MiB (93%)
Audio
ID : 2
Format : AC-3
Format/Info : Audio Coding 3
Mode extension : CM (complete main)
Codec ID : A_AC3
Duration : 21mn 21s
Bit rate mode : Constant
Bit rate : 192 Kbps
Channel(s) : 2 channels
Channel positions : Front: L R
Sampling rate : 44.1 KHz
Bit depth : 16 bits
Compression mode : Lossy
Delay relative to video : 9ms
Stream size : 29.3 MiB (5%)
Релиз от:

Релиз подготовлен R.G.Files-x

[Профиль] [ЛС]
Показать сообщения:    
Ответить на тему

Текущее время: 25-Мар 13:52

Часовой пояс: UTC + 3



Вы не можете начинать темы
Вы не можете отвечать на сообщения
Вы не можете редактировать свои сообщения
Вы не можете удалять свои сообщения
Вы не можете голосовать в опросах
Вы не можете прикреплять файлы к сообщениям
Вы не можете скачивать файлы