Деньги или Позор [3 сезон: 1-8 выпуски из 8] (2018) WEBRip от Files-x

Ответить на тему
 
Автор Сообщение

bond74 ®

Пол: Мужской

Стаж: 4 месяца 7 дней

Сообщений: 267

Создавать темы 26-Ноя-2018 12:45

[Цитировать]

Деньги или Позор Год выпуска: 2018
Жанр: ТВ-шоу, юмор, импровизация
Выпущено: Россия, ТНТ, Comedy Club Production
Ведущий: Мигель, Настасья Самбурская, Станислав Ярушин, Тимур Батрутдинов, Тимур Родригез
О фильме: Деньги или Позор" - самое острое комедийное шоу с участием звёзд! Только на телеканале ТНТ4! В июле! Они пойдут ради денег на всё! Каждую неделю одна знаменитость будет опозорена на всю страну и заработает 1 миллион рублей. По условиям шоу каждый звездный гость получает на руки солидную сумму денег, после чего ведущий озвучивает самые откровенные, нелепые, а главное — правдивые факты из их жизни. Если гость захочет скрыть какую-либо информацию о себе, то он может откупиться, лишившись денег. В этом случае и происходит главный выбор — деньги или позор.
Качество: WEBRip
Видео: XviD, ~ 1800 Кбит/с, 720x400, 25 кадр/с
Аудио: AC3, 2 ch, 192 Кбит/с
Продолжительность: 8 х ~ 00:25:00
Перевод: Не требуется
Субтитры: нет

Скриншоты

MediaInfo

General
General
Complete name : H:\шоу\Деньги или Позор (2018) WEB-DLRip. Files-x\01. Деньги или позор .WEB-DLRip. Files-x.avi
Format : AVI
Format/Info : Audio Video Interleave
File size : 361 MiB
Duration : 25mn 13s
Overall bit rate : 2 002 Kbps
Writing application : VirtualDubMod 1.5.10.3 | www.virtualdub-fr.org || (build 2550/release)
Writing library : VirtualDubMod build 2550/release
Video
ID : 0
Format : MPEG-4 Visual
Format profile : Advanced Simple@L5
Format settings, BVOP : 1
Format settings, QPel : Yes
Format settings, GMC : No warppoints
Format settings, Matrix : Default (MPEG)
Codec ID : XVID
Codec ID/Hint : XviD
Duration : 25mn 13s
Bit rate : 1 800 Kbps
Width : 720 pixels
Height : 400 pixels
Display aspect ratio : 16:9
Frame rate : 25.000 fps
Color space : YUV
Chroma subsampling : 4:2:0
Bit depth : 8 bits
Scan type : Progressive
Compression mode : Lossy
Bits/(Pixel*Frame) : 0.250
Stream size : 325 MiB (90%)
Writing library : XviD 73
Audio
ID : 1
Format : AC-3
Format/Info : Audio Coding 3
Mode extension : CM (complete main)
Codec ID : 2000
Duration : 25mn 13s
Bit rate mode : Constant
Bit rate : 192 Kbps
Channel(s) : 2 channels
Channel positions : Front: L R
Sampling rate : 48.0 KHz
Bit depth : 16 bits
Compression mode : Lossy
Stream size : 34.6 MiB (10%)
Alignment : Split accross interleaves
Interleave, duration : 40 ms (1.00 video frame)
Interleave, preload duration : 500 ms
Релиз от:

Релиз подготовлен R.G.Files-x

[Профиль] [ЛС]
Показать сообщения:    
Ответить на тему

Текущее время: 22-Мар 10:25

Часовой пояс: UTC + 3



Вы не можете начинать темы
Вы не можете отвечать на сообщения
Вы не можете редактировать свои сообщения
Вы не можете удалять свои сообщения
Вы не можете голосовать в опросах
Вы не можете прикреплять файлы к сообщениям
Вы не можете скачивать файлы