Женщина в зеркале [1-4 серии из 4] (2018) WEB-DL 720p от Files-x

Ответить на тему
 
Автор Сообщение

Nicodem ®

Пол: Мужской

Стаж: 3 месяца

Сообщений: 173

Создавать темы 18-Ноя-2018 01:13

[Цитировать]

Женщина в зеркале
Год выпуска: 2018
Жанр: Детектив, мелодрама, триллер
Выпущено: Россия, Энерджи Фильм, Хит Фильм Продакшн
Режиссер: Руслан Ибрагимов
В ролях: Елена Полянская, Кирилл Жандаров, Анна Вартанян, Ольга Кирсанова-Миропольская, Дмитрий Фрид, Егор Кутенков, Татьяна Рассказова, Анна Слынько, Елена Мартыненко, Игорь Ботвин, Константин Воробьёв, Жанна Куприянова, Даниил Васильев
О фильме: Татьяна долго ждала, когда Михаил уйдёт от жены. И вот этот день настал, они будут жить вместе. Только это счастливое начало быстро оказывается финалом романа. Страшно не то, что прекрасный принц на глазах превращается в чудовище, а то, что он втягивает её в водоворот, в котором тонет сам. Теперь у обоих тайный враг – и это последнее, что их объединяет. Этот враг невидим и всемогущ, и он близко, очень близко...

Качество: WEB-DL 720p
Видео: MPEG-4 AVC, ~ 1761 Кбит/с, 1280x720, 25 Кадр/с
Аудио: AC3, 2 ch, 192 Кбит/с
Продолжительность: 4 х 00:47:00
Перевод: Не требуется
Cубтитры: нет

Скриншоты





MediaInfo

Общее
Уникальный идентификатор : 331567890082484247718323684064604015697 (0xF971A71E9A60451313A3FCB995054C51)
Полное имя : C:\Users\DOM\Downloads\Женщина в зеркале.2018.WEB-DL (720p).by.Nicodem.Files-x\01.Женщина в зеркале.2018.WEB-DL (720p).by.Nicodem.Files-x.mkv
Формат : Matroska
Размер файла : 675 Мбайт
Продолжительность : 47 м.
Общий поток : 1992 Кбит/сек
Программа кодирования : Lavf56.36.100
Библиотека кодирования : Lavf56.36.100
Видео
Идентификатор : 1
Формат : AVC
Формат/Информация : Advanced Video Codec
Профиль формата : High@L3.1
Параметр CABAC формата : Да
Параметр ReFrames формата : 3 кадра
Идентификатор кодека : V_MPEG4/ISO/AVC
Продолжительность : 47 м.
Битрейт : 1761 Кбит/сек
Ширина : 1280 пикс.
Высота : 720 пикс.
Соотношение сторон : 16:9
Частота кадров : 25,000 кадр/сек
Цветовое пространство : YUV
Подвыборка цветности : 4:2:0
Битовая глубина : 8 бит
Тип развёртки : Прогрессивная
Бит/(Пиксели*Кадры) : 0.076
Размер потока : 597 Мбайт (88%)
Язык : English
Аудио
Идентификатор : 2
Формат : AC-3
Формат/Информация : Audio Coding 3
Расширение режима : CM (complete main)
Идентификатор кодека : A_AC3
Продолжительность : 47 м.
Вид битрейта : Постоянный
Битрейт : 192 Кбит/сек
Каналы : 2 канала
Расположение каналов : Front: L R
Частота : 48,0 КГц
Битовая глубина : 16 бит
Метод сжатия : С потерями
Размер потока : 65,1 Мбайт (10%)
Язык : English / un
Релиз от:

Релиз подготовлен R.G.Files-x

[Профиль] [ЛС]
Показать сообщения:    
Ответить на тему

Текущее время: 17-Фев 19:59

Часовой пояс: UTC + 3



Вы не можете начинать темы
Вы не можете отвечать на сообщения
Вы не можете редактировать свои сообщения
Вы не можете удалять свои сообщения
Вы не можете голосовать в опросах
Вы не можете прикреплять файлы к сообщениям
Вы не можете скачивать файлы