Женщина в зеркале [1-4 серии из 4] (2018) WEB-DLRip от Files-x

Reply to topic
 
Author Message

Nicodem ®

Gender: Male

Longevity: 7 months 1 day

Posts: 178

Post 18-Nov-2018 01:20

[Quote]

Женщина в зеркале
Год выпуска: 2018
Жанр: Детектив, мелодрама, триллер
Выпущено: Россия, Энерджи Фильм, Хит Фильм Продакшн
Режиссер: Руслан Ибрагимов
В ролях: Елена Полянская, Кирилл Жандаров, Анна Вартанян, Ольга Кирсанова-Миропольская, Дмитрий Фрид, Егор Кутенков, Татьяна Рассказова, Анна Слынько, Елена Мартыненко, Игорь Ботвин, Константин Воробьёв, Жанна Куприянова, Даниил Васильев
О фильме: Татьяна долго ждала, когда Михаил уйдёт от жены. И вот этот день настал, они будут жить вместе. Только это счастливое начало быстро оказывается финалом романа. Страшно не то, что прекрасный принц на глазах превращается в чудовище, а то, что он втягивает её в водоворот, в котором тонет сам. Теперь у обоих тайный враг – и это последнее, что их объединяет. Этот враг невидим и всемогущ, и он близко, очень близко...
Качество: WEB-DLRip
Видео: XviD, ~ 1572 Кбит/с, 720x400, 25 Кадр/с
Аудио: AC3, 2 ch, 192 Кбит/с
Продолжительность: 4 х 00:47:00
Перевод: Не требуется
Cубтитры: нет

MediaInfo

Общее
Полное имя : C:\Users\DOM\Downloads\Женщина в зеркале.2018.WEB-DLRip.by.Nicodem.Files-x\01.Женщина в зеркале.2018.WEB-DLRip.by.Nicodem.Files-x.avi
Формат : AVI
Формат/Информация : Audio Video Interleave
Размер файла : 601 Мбайт
Продолжительность : 47 м.
Общий поток : 1774 Кбит/сек
Программа кодирования : VirtualDubMod 1.5.10.3 | www.virtualdub-fr.org || (build 2550/release)
Библиотека кодирования : VirtualDubMod build 2550/release
Видео
Идентификатор : 0
Формат : MPEG-4 Visual
Профиль формата : Advanced Simple@L5
Параметр BVOP формата : 1
Параметр QPel формата : Нет
Параметр GMC формата : Без точки перехода
Параметр матрицы формата : Выборочная
Идентификатор кодека : XVID
Идентификатор кодека/Подсказка : XviD
Продолжительность : 47 м.
Битрейт : 1572 Кбит/сек
Ширина : 720 пикс.
Высота : 400 пикс.
Соотношение сторон : 16:9
Частота кадров : 25,000 кадр/сек
Цветовое пространство : YUV
Подвыборка цветности : 4:2:0
Битовая глубина : 8 бит
Тип развёртки : Прогрессивная
Метод сжатия : С потерями
Бит/(Пиксели*Кадры) : 0.218
Размер потока : 533 Мбайт (89%)
Библиотека кодирования : XviD 73
Аудио
Идентификатор : 1
Формат : AC-3
Формат/Информация : Audio Coding 3
Расширение режима : CM (complete main)
Идентификатор кодека : 2000
Продолжительность : 47 м.
Вид битрейта : Постоянный
Битрейт : 192 Кбит/сек
Каналы : 2 канала
Расположение каналов : Front: L R
Частота : 48,0 КГц
Битовая глубина : 16 бит
Метод сжатия : С потерями
Размер потока : 65,1 Мбайт (11%)
Выравнивание : Разделение по промежуткам
Продолжительность промежутка : 40 мс. (1,00 видеокадр)
Время предзагрузки промежутка : 500 ms
Релиз от:
[Profile] [PM]
Display posts:    
Reply to topic

Current time is: 18-Jun 20:58

All times are UTC + 3



You cannot post new topics in this forum
You cannot reply to topics in this forum
You cannot edit your posts in this forum
You cannot delete your posts in this forum
You cannot vote in polls in this forum
You cannot attach files in this forum
You cannot download files in this forum