Бельканто / Bel Canto (2018) BDRip 720p | iTunes

Reply to topic
 
Author Message

Monk ®

Gender: Male

Longevity: 10 months 8 days

Posts: 8734

Location: Казань

Post 27-Nov-2018 10:51

[Quote]

Бельканто / Bel Canto Год выпуска: 2018
Жанр: Триллер, драма, мелодрама, музыка
Выпущено: США, A-Line Pictures, Depth of Field, Priority Picture
Режиссер: Пол Вайц
В ролях: Джулианна Мур, Кэн Ватанабэ, Себастьян Кох, Теноч Уэрта, Рё Касэ, Мария Мерседес Корой, Кристофер Ламберт, Торбьорн Харр, Эльза Зильберштейн, Олек Крупа
О фильме: Оперная дива Роксана Косс приезжает в одну из стран Южной Америки, чтобы выступить на приеме по случаю дня рождения японского магната. Гости наслаждались великолепным сопрано Роксаны, когда в дом ворвались боевики во главе с генералом Беньямином. В обмен на 490 жизней они требовали освобождения заключенных повстанцев. Месяц заложники и террористы проведут в оккупированном особняке. Чтобы выжить, им необходимо попытаться понять друг друга…

Качество: BDRip 720p
Видео: MPEG-4 AVC, ~ 3133 Кбит/с, 1280x536
Аудио: Русский (AC3, 6 ch, 384 Кбит/с), английский (DTS, 6 ch, 1509 Кбит/с)
Продолжительность: 01:40:56
Перевод: Дублированный [iTunes]
Субтитры: Русские, английские

Скриншоты



MediaInfo

Общее
Уникальный идентификатор : 240095376078155193900169175972582156572 (0xB4A0AFFB65F5F5F08387D89F137A691C)
Полное имя : Bel.Canto.2018.BluRay.720p.DD5.1.x264.Rus.Eng.mkv
Формат : Matroska
Версия формата : Version 4 / Version 2
Размер файла : 3,55 Гбайт
Продолжительность : 1 ч. 40 м.
Общий поток : 5028 Кбит/сек
Название фильма : Bel.Canto.2018.BluRay.720p.DD5.1.x264.Rus.Eng
Дата кодирования : UTC 2018-11-25 09:00:47
Программа кодирования : mkvmerge v27.0.0 ('Metropolis') 64-bit
Библиотека кодирования : libebml v1.3.6 + libmatroska v1.4.9
Видео
Идентификатор : 1
Формат : AVC
Формат/Информация : Advanced Video Codec
Профиль формата : High@L4.1
Настройки формата : CABAC / 9 Ref Frames
Параметр CABAC формата : Да
Параметр RefFrames формата : 9 кадров
Идентификатор кодека : V_MPEG4/ISO/AVC
Продолжительность : 1 ч. 40 м.
Битрейт : 3133 Кбит/сек
Ширина : 1280 пикселей
Высота : 536 пикселей
Соотношение сторон : 2,40:1
Режим частоты кадров : Постоянный
Частота кадров : 23,976 (24000/1001) кадра/сек
Цветовое пространство : YUV
Субдискретизация насыщенности : 4:2:0
Битовая глубина : 8 бит
Тип развёртки : Прогрессивная
Бит/(Пиксели*Кадры) : 0.190
Размер потока : 2,21 Гбайт (62%)
Заголовок : Bel.Canto.2018.BluRay.720p.DD5.1.x264.Rus.Eng
Библиотека кодирования : x264 core 157 r2935 545de2f
Настройки программы : cabac=1 / ref=9 / deblock=1:-3:-3 / analyse=0x3:0x133 / me=umh / subme=11 / psy=1 / psy_rd=1.00:0.15 / mixed_ref=1 / me_range=48 / chroma_me=1 / trellis=2 / 8x8dct=1 / cqm=0 / deadzone=21,11 / fast_pskip=0 / chroma_qp_offset=-3 / threads=12 / lookahead_threads=2 / sliced_threads=0 / nr=0 / decimate=1 / interlaced=0 / bluray_compat=0 / constrained_intra=0 / bframes=8 / b_pyramid=2 / b_adapt=2 / b_bias=0 / direct=3 / weightb=1 / open_gop=0 / weightp=2 / keyint=300 / keyint_min=24 / scenecut=40 / intra_refresh=0 / rc_lookahead=60 / rc=crf / mbtree=1 / crf=15.2 / qcomp=0.60 / qpmin=0 / qpmax=69 / qpstep=4 / ip_ratio=1.40 / aq=3:1.00
Default : Да
Forced : Нет
Аудио #1
Идентификатор : 2
Формат : AC-3
Формат/Информация : Audio Coding 3
Идентификатор кодека : A_AC3
Продолжительность : 1 ч. 40 м.
Вид битрейта : Постоянный
Битрейт : 384 Кбит/сек
Каналы : 6 каналов
Расположение каналов : Front: L C R, Side: L R, LFE
Частота : 48,0 КГц
Частота кадров : 31,250 кадров/сек (1536 SPF)
Битовая глубина : 16 бит
Метод сжатия : С потерями
Размер потока : 277 Мбайт (8%)
Заголовок : iTunes
ServiceKind/String : Complete Main
Default : Да
Forced : Нет
Аудио #2
Идентификатор : 3
Формат : DTS
Формат/Информация : Digital Theater Systems
Идентификатор кодека : A_DTS
Продолжительность : 1 ч. 40 м.
Вид битрейта : Постоянный
Битрейт : 1509 Кбит/сек
Каналы : 6 каналов
Расположение каналов : Front: L C R, Side: L R, LFE
Частота : 48,0 КГц
Частота кадров : 93,750 кадра/сек (512 SPF)
Битовая глубина : 24 бит
Метод сжатия : С потерями
Размер потока : 1,06 Гбайт (30%)
Default : Нет
Forced : Нет
Текст #1
Идентификатор : 4
Формат : UTF-8
Идентификатор кодека : S_TEXT/UTF8
Идентификатор кодека/Информация : UTF-8 Plain Text
Продолжительность : 1 ч. 31 м.
Битрейт : 27 бит/сек
ElementCount : 476
Размер потока : 18,4 Кбайт (0%)
Язык : Russian
Default : Да
Forced : Да
Текст #2
Идентификатор : 5
Формат : UTF-8
Идентификатор кодека : S_TEXT/UTF8
Идентификатор кодека/Информация : UTF-8 Plain Text
Продолжительность : 1 ч. 35 м.
Битрейт : 31 бит/сек
ElementCount : 1093
Размер потока : 22,4 Кбайт (0%)
Язык : English
Default : Нет
Forced : Нет
Меню
00:00:00.000 : :00:00:00.000
00:08:30.218 : :00:08:30.218
00:20:14.839 : :00:20:14.839
00:27:27.729 : :00:27:27.729
00:35:59.699 : :00:35:59.699
00:42:03.312 : :00:42:03.312
00:52:07.541 : :00:52:07.541
01:01:59.758 : :01:01:59.758
01:13:56.182 : :01:13:56.182
01:18:35.961 : :01:18:35.961
01:26:03.450 : :01:26:03.450
01:34:27.954 : :01:34:27.954
[Profile] [PM]
Display posts:    
Reply to topic

Current time is: 23-Sep 04:33

All times are UTC + 3



You cannot post new topics in this forum
You cannot reply to topics in this forum
You cannot edit your posts in this forum
You cannot delete your posts in this forum
You cannot vote in polls in this forum
You cannot attach files in this forum
You cannot download files in this forum