Бельканто / Bel Canto (2018) BDRip 1080p | iTunes

Reply to topic
 
Author Message

Monk ®

Gender: Male

Longevity: 1 year

Posts: 9115

Location: Казань

Post 27-Nov-2018 10:52

[Quote]

Бельканто / Bel Canto Год выпуска: 2018
Жанр: Триллер, драма, мелодрама, музыка
Выпущено: США, A-Line Pictures, Depth of Field, Priority Picture
Режиссер: Пол Вайц
В ролях: Джулианна Мур, Кэн Ватанабэ, Себастьян Кох, Теноч Уэрта, Рё Касэ, Мария Мерседес Корой, Кристофер Ламберт, Торбьорн Харр, Эльза Зильберштейн, Олек Крупа
О фильме: Оперная дива Роксана Косс приезжает в одну из стран Южной Америки, чтобы выступить на приеме по случаю дня рождения японского магната. Гости наслаждались великолепным сопрано Роксаны, когда в дом ворвались боевики во главе с генералом Беньямином. В обмен на 490 жизней они требовали освобождения заключенных повстанцев. Месяц заложники и террористы проведут в оккупированном особняке. Чтобы выжить, им необходимо попытаться понять друг друга…

Качество: BDRip 1080p
Видео: MPEG-4 AVC, 9000 Кбит/с, 1920x804
Аудио: Русский (AC3, 6 ch, 384 Кбит/с), английский (DTS, 6 ch, 1510 Кбит/с)
Продолжительность: 01:40:56
Перевод: Дублированный [iTunes]
Субтитры: Русские (форсированные), английские

Скриншоты



MediaInfo

General
Unique ID : 210411124236372099014506635456296272061 (0x9E4BB55EF0557AF6A62102B4768040BD)
Complete name : D:\Video111\Bel.Canto.2018.BDRip.1080p.selezen.mkv
Format : Matroska
Format version : Version 4
File size : 7.68 GiB
Duration : 1 h 40 min
Overall bit rate : 10.9 Mb/s
Movie name : Bel Canto (2018) from селезень
Encoded date : UTC 2018-11-26 04:12:34
Writing application : mkvmerge v28.2.0 ('The Awakening') 64-bit
Writing library : libebml v1.3.6 + libmatroska v1.4.9
Video
ID : 1
Format : AVC
Format/Info : Advanced Video Codec
Format profile : High@L4.1
Format settings : CABAC / 5 Ref Frames
Format settings, CABAC : Yes
Format settings, ReFrames : 5 frames
Codec ID : V_MPEG4/ISO/AVC
Duration : 1 h 40 min
Bit rate : 9 000 kb/s
Width : 1 920 pixels
Height : 804 pixels
Display aspect ratio : 2.40:1
Frame rate mode : Constant
Frame rate : 23.976 (24000/1001) FPS
Color space : YUV
Chroma subsampling : 4:2:0
Bit depth : 8 bits
Scan type : Progressive
Bits/(Pixel*Frame) : 0.243
Stream size : 6.34 GiB (83%)
Title : selezen
Writing library : x264 core 148 r2705kMod 3f5ed56
Encoding settings : cabac=1 / ref=5 / deblock=1:-2:-2 / analyse=0x3:0x133 / me=umh / subme=10 / psy=1 / fade_compensate=0.00 / psy_rd=1.05:0.07 / mixed_ref=1 / me_range=32 / chroma_me=1 / trellis=2 / 8x8dct=1 / cqm=0 / deadzone=21,11 / fast_pskip=0 / chroma_qp_offset=-3 / threads=12 / lookahead_threads=2 / sliced_threads=0 / nr=0 / decimate=0 / interlaced=0 / bluray_compat=0 / constrained_intra=0 / fgo=0 / bframes=8 / b_pyramid=2 / b_adapt=2 / b_bias=0 / direct=3 / weightb=1 / open_gop=0 / weightp=2 / keyint=240 / keyint_min=23 / scenecut=40 / intra_refresh=0 / rc_lookahead=50 / rc=2pass / mbtree=0 / bitrate=9000 / ratetol=1.0 / qcomp=0.60 / qpmin=0 / qpmax=51 / qpstep=4 / cplxblur=20.0 / qblur=0.5 / vbv_maxrate=50000 / vbv_bufsize=62500 / nal_hrd=none / filler=0 / ip_ratio=1.40 / pb_ratio=1.30 / aq=3:0.80
Language : English
Default : Yes
Forced : No
Audio #1
ID : 2
Format : AC-3
Format/Info : Audio Coding 3
Commercial name : Dolby Digital
Codec ID : A_AC3
Duration : 1 h 40 min
Bit rate mode : Constant
Bit rate : 384 kb/s
Channel(s) : 6 channels
Channel layout : L R C LFE Ls Rs
Sampling rate : 48.0 kHz
Frame rate : 31.250 FPS (1536 SPF)
Bit depth : 16 bits
Compression mode : Lossy
Stream size : 277 MiB (4%)
Title : iTunes
Language : Russian
Service kind : Complete Main
Default : Yes
Forced : Yes
Audio #2
ID : 3
Format : DTS
Format/Info : Digital Theater Systems
Codec ID : A_DTS
Duration : 1 h 40 min
Bit rate mode : Constant
Bit rate : 1 509 kb/s
Channel(s) : 6 channels
Channel layout : C L R Ls Rs LFE
Sampling rate : 48.0 kHz
Frame rate : 93.750 FPS (512 SPF)
Bit depth : 24 bits
Compression mode : Lossy
Stream size : 1.06 GiB (14%)
Title : Original
Language : English
Default : No
Forced : No
Text #1
ID : 4
Format : UTF-8
Codec ID : S_TEXT/UTF8
Codec ID/Info : UTF-8 Plain Text
Duration : 1 h 31 min
Bit rate : 27 b/s
Count of elements : 476
Stream size : 18.4 KiB (0%)
Title : Forced
Language : Russian
Default : Yes
Forced : Yes
Text #2
ID : 5
Format : UTF-8
Codec ID : S_TEXT/UTF8
Codec ID/Info : UTF-8 Plain Text
Duration : 1 h 35 min
Bit rate : 31 b/s
Count of elements : 1045
Stream size : 21.8 KiB (0%)
Title : SDH
Language : English
Default : No
Forced : No
Menu
00:00:00.000 : en:Chapter 1
00:08:30.218 : en:Chapter 2
00:20:14.839 : en:Chapter 3
00:27:27.729 : en:Chapter 4
00:35:59.699 : en:Chapter 5
00:42:03.312 : en:Chapter 6
00:52:07.541 : en:Chapter 7
01:01:59.758 : en:Chapter 8
01:13:56.182 : en:Chapter 9
01:18:35.961 : en:Chapter 10
01:26:03.450 : en:Chapter 11
01:34:27.954 : en:Chapter 12
[Profile] [PM]
Display posts:    
Reply to topic

Current time is: 23-Nov 05:49

All times are UTC + 3



You cannot post new topics in this forum
You cannot reply to topics in this forum
You cannot edit your posts in this forum
You cannot delete your posts in this forum
You cannot vote in polls in this forum
You cannot attach files in this forum
You cannot download files in this forum