Первокурсницы [1-16 серии из 16] (2023) WEBRip-AVC от Files-х

Reply to topic
 
Author Message

Серый1779 ®

Gender: Male

Longevity: 5 years 8 months

Posts: 3620

Location: Украина

Post 05-Sep-2023 00:16

[Quote]

Первокурсницы
Год выпуска: 2023
Жанр: Комедия, мелодрама
Выпущено: Россия, Кинокомпания "Comedy Club Production"
Режиссер: Илья Ермолов
В ролях: Анна Уколова, Екатерина Стулова, Людмила Артемьева, Александр Обласов, Ян Цапник, Екатерина Новокрещенова, Ксения Красовская, Александр Доронин, Максим Деричев, Алина Воскресенская, Павел Лёвкин, Диана Милютина, Виктор Цекало, Александр Никольский, Ирина Лисовская
О фильме: Подруги Жанна и Настя, встречая миллениум в стенах общежития, пожелали друг другу добиться всего, чего они хотят, и обязательно открыть роскошный ресторан где-нибудь на берегу моря. Но судьба сложилась иначе. И Жанна, и Настя бросили институт после первого курса. После того, как Настины сыновья уходят в армию, а Жанна узнает об измене мужа, подруги встречаются и жалеют о годах, которые, как им кажется, прошли впустую. И тогда Жанна решает, что все могло бы быть иначе, если бы они не бросили учебу. Подруги придумывают гениальный план: вернуться в институт и заселиться в то самое общежитие, чтобы начать все заново. Сорокалетним студенткам придется нелегко и в учебе, и в общении с молодым окружением. Но Жанна и Настя не собираются сдаваться на пути к своему счастью.

Качество: WEBRip-AVC
Видео: MPEG-4 AVC, ~ 1600 Кбит/с, 1024x576, 25 кадр/с
Аудио: AC3, 2 ch, 192 Кбит/с
Продолжительность: 16 x ~ 00:24:46
Перевод: Не требуется
Cубтитры: Нет

Скриншоты



MediaInfo

General
Unique ID : 192637044757820365304409077654822155500 (0x90EC8B981BAADBC7A4F663D19A1974EC)
Complete name : F:\Первокурсницы.(2023).WEBRip.(AVC).Files-x\01.Первокурсницы.(2023).WEBRip.(AVC).by.Серый1779.Files-x.mkv
Format : Matroska
Format version : Version 2
File size : 316 MiB
Duration : 24 min 42 s
Overall bit rate : 1 790 kb/s
Encoded date : UTC 2023-09-04 21:05:24
Writing application : mkvmerge v7.8.0 ('River Man') 32bit built on Apr 3 2015 12:11:22
Writing library : libebml v1.3.1 + libmatroska v1.4.2
Video
ID : 1
Format : AVC
Format/Info : Advanced Video Codec
Format profile : High@L4.1
Format settings : CABAC / 9 Ref Frames
Format settings, CABAC : Yes
Format settings, RefFrames : 9 frames
Codec ID : V_MPEG4/ISO/AVC
Duration : 24 min 42 s
Bit rate : 1 600 kb/s
Width : 1 024 pixels
Height : 576 pixels
Display aspect ratio : 16:9
Frame rate mode : Constant
Frame rate : 25.000 FPS
Color space : YUV
Chroma subsampling : 4:2:0
Bit depth : 8 bits
Scan type : Progressive
Bits/(Pixel*Frame) : 0.109
Stream size : 276 MiB (87%)
Writing library : x264 core 146 r2538 121396c
Encoding settings : cabac=1 / ref=9 / deblock=1:-2:-1 / analyse=0x3:0x133 / me=umh / subme=9 / psy=1 / psy_rd=1.00:0.15 / mixed_ref=1 / me_range=32 / chroma_me=1 / trellis=2 / 8x8dct=1 / cqm=0 / deadzone=21,11 / fast_pskip=0 / chroma_qp_offset=-3 / threads=18 / lookahead_threads=3 / sliced_threads=0 / nr=0 / decimate=1 / interlaced=0 / bluray_compat=0 / constrained_intra=0 / bframes=9 / b_pyramid=2 / b_adapt=2 / b_bias=0 / direct=1 / weightb=1 / open_gop=0 / weightp=2 / keyint=250 / keyint_min=25 / scenecut=40 / intra_refresh=0 / rc=2pass / mbtree=0 / bitrate=1600 / ratetol=1.0 / qcomp=0.60 / qpmin=0 / qpmax=69 / qpstep=4 / cplxblur=20.0 / qblur=0.5 / ip_ratio=1.40 / pb_ratio=1.30 / aq=2:1.00
Default : Yes
Forced : No
Color range : Limited
Color primaries : BT.709
Transfer characteristics : BT.709
Matrix coefficients : BT.709
Audio
ID : 2
Format : AC-3
Format/Info : Audio Coding 3
Format settings, Endianness : Big
Codec ID : A_AC3
Duration : 24 min 42 s
Bit rate mode : Constant
Bit rate : 192 kb/s
Channel(s) : 2 channels
Channel positions : Front: L R
Sampling rate : 48.0 kHz
Frame rate : 31.250 FPS (1536 SPF)
Bit depth : 16 bits
Compression mode : Lossy
Stream size : 33.9 MiB (11%)
Service kind : Complete Main
Default : Yes
Forced : No

Раздача ведётся путём добавления новых серий

Внимание! Раздача ведётся путём добавления новых серий; при каждом добавлении создаётся новый торрент.
Чтобы начать докачку новой серии, пользователям необходимо сделать следующее:
1. Остановить скачивание;
2. Удалить старый торрент у себя из клиента (старые серии удалять не надо);
3. Скачать новый торрент и запустить его у себя в клиенте вместо старого, при этом указать клиенту путь в старую папку куда и должно происходить скачивание новых серий. Ваш клиент при этом должен произвести хеширование (проверку) старой папки и будет докачивать только те серии, которых у вас ещё нет. Старые серии при этом не удаляются, а продолжают раздаваться! Eсли вы уже удалили старые серии, то предотвратить повторную закачку старых серий можно, отжав галочку в соответствующих местах при запуске нового торрента.
Релиз от:

Release was prepared by RG Files-x

[Profile] [PM]
Display posts:    
Reply to topic

Current time is: 18-Jul 11:31

All times are UTC + 3



You cannot post new topics in this forum
You cannot reply to topics in this forum
You cannot edit your posts in this forum
You cannot delete your posts in this forum
You cannot vote in polls in this forum
You cannot attach files in this forum
You cannot download files in this forum