Напарники [1-20 серии из 20] (2021) WEBRip от Files-х

Reply to topic
 
Author Message

bond74 ®

Gender: Male

Longevity: 5 years

Posts: 2158

Post 19-Sep-2023 08:44

[Quote]

Напарники
Год выпуска: 2021
Жанр: Боевик, детектив, комедия
Выпущено: Россия, Кинокомпания «Киностудия КИТ»
Режиссер: Михаил Кабанов
В ролях: Сергей Пускепалис, Андрей Багиров, Маруся Климова, Максим Литовченко, Сергей Генкин, Екатерина Стулова, Сергей Багиров, Григорий Перель, Александр Поляк, Юрий Ваксман, Сергей Шарифуллин, Денис Дружинин, Артур Руденко, Анжела Кольцова, Моряна Анттонен-Шестакова, Михаил Владимиров, Игорь Поселенов
О фильме: Иван Титов – лучший оперативник в городе. Он всегда работал без напарников, но в один момент ему навязывают сразу двоих – генеральского сына Влада и недавнюю выпускницу университета, «вечную отличницу» Леру. Влад, получивший диплом юриста для галочки, мечтает уехать в Лондон, но вынужден исполнить волю отца-генерала - поработать год в оперативном отделе. Лера же хочет доказать, что действительно призвана быть полицейским и училась на красный диплом не зря. Титов раздражен — ему приходится возиться с этой парочкой, отвечать за них, да ещё и вытаскивать из историй, в которые они постоянно влипают. Откуда ему знать, что именно эти молодые ребята научат его иначе смотреть на жизнь и он наконец решится на важные перемены…
Качество: WEBRip
Видео: XviD, ~ 1600 Кбит/с, 720x400, 25 кадр/с, 25 кадр/с
Аудио: AC3, 2 ch, 192 Кбит/с
Продолжительность: 20 x ~ 00:48:48
Перевод: Не требуется
Cубтитры: Русские

Скриншоты




MediaInfo

Общее
Полное имя : C:\Напарники. 2023.WEB-DLRip.Files-x\01 Напарники. 2023.WEB-DLRip.Files-x.avi
Формат : AVI
Формат/Информация : Audio Video Interleave
Размер файла : 627 Мбайт
Продолжительность : 48 м. 48 с.
Общий поток : 1 798 Кбит/сек
Программа кодирования : VirtualDubMod 1.5.10.3 | www.virtualdub-fr.org || (build 2550/release)
Библиотека кодирования : VirtualDubMod build 2550/release
Видео
Идентификатор : 0
Формат : MPEG-4 Visual
Профиль формата : Advanced Simple@L5
Настройки формата : BVOP1 / Custom Matrix
Параметр BVOP формата : 1
Параметр QPel формата : Нет
Параметр GMC формата : Без точки перехода
Параметр матрицы формата : Выборочная
Идентификатор кодека : XVID
Идентификатор кодека/Подсказка : XviD
Продолжительность : 48 м. 48 с.
Битрейт : 1 596 Кбит/сек
Ширина : 720 пикселей
Высота : 400 пикселей
Соотношение сторон : 16:9
Частота кадров : 25,000 кадров/сек
Цветовое пространство : YUV
Субдискретизация насыщенности : 4:2:0
Битовая глубина : 8 бит
Тип развёртки : Прогрессивная
Метод сжатия : С потерями
Бит/(Пиксели*Кадры) : 0.222
Размер потока : 557 Мбайт (89%)
Библиотека кодирования : XviD 73
Аудио
Идентификатор : 1
Формат : AC-3
Формат/Информация : Audio Coding 3
Коммерческое название : Dolby Digital
Идентификатор кодека : 2000
Продолжительность : 48 м. 48 с.
Вид битрейта : Постоянный
Битрейт : 192 Кбит/сек
Каналы : 2 канала
Channel layout : L R
Частота : 48,0 КГц
Частота кадров : 31,250 кадров/сек (1536 SPF)
Метод сжатия : С потерями
Размер потока : 67,0 Мбайт (11%)
Выравнивание : Разделение по промежуткам
Продолжительность промежутка : 40 мс. (1,00 видеокадр)
Время предзагрузки промежутка : 500 мс.
Service kind : Complete Main

Раздача ведётся путём добавления новых серий

Внимание! Раздача ведётся путём добавления новых серий; при каждом добавлении создаётся новый торрент.
Чтобы начать докачку новой серии, пользователям необходимо сделать следующее:
1. Остановить скачивание;
2. Удалить старый торрент у себя из клиента (старые серии удалять не надо);
3. Скачать новый торрент и запустить его у себя в клиенте вместо старого, при этом указать клиенту путь в старую папку куда и должно происходить скачивание новых серий. Ваш клиент при этом должен произвести хеширование (проверку) старой папки и будет докачивать только те серии, которых у вас ещё нет. Старые серии при этом не удаляются, а продолжают раздаваться! Eсли вы уже удалили старые серии, то предотвратить повторную закачку старых серий можно, отжав галочку в соответствующих местах при запуске нового торрента.
Релиз от:

Release was prepared by RG Files-x

[Profile] [PM]
Display posts:    
Reply to topic

Current time is: 09-Dec 11:09

All times are UTC + 3



You cannot post new topics in this forum
You cannot reply to topics in this forum
You cannot edit your posts in this forum
You cannot delete your posts in this forum
You cannot vote in polls in this forum
You cannot attach files in this forum
You cannot download files in this forum