А у нас во дворе… Прерванный сезон [1-3 серии] (2022) HDTV 1080р от Files-x

Reply to topic
 
Author Message

Nicodem ®

Gender: Male

Longevity: 5 years 3 months

Posts: 1397

Post 23-Sep-2023 23:48

[Quote]

А у нас во дворе… Прерванный сезон
Год выпуска: 2022
Жанр: Детектив, мелодрама
Выпущено: Россия, АТВ
Режиссер: Ольга Музалева
В ролях: Равшана Куркова, Сергей Пускепалис
О фильме: Памяти Сергея Пускепалиса.
Над продолжением полюбившегося зрителям детективного сериала "А у нас во дворе…", рассказывающего о нескучных буднях интернациональной пары: русского экс-полицейского Владимира Каленого и красавицы из Узбекистана Мавлюды, режиссер Ольга Музалева начала работать в июне 22 года. Съемочная группа успела отснять всего 14 смен… В память о Большом Актере - Сергее Пускепалисе, Ольга смонтировала три серии из отснятого с ним материала, добавив в них документальные кадры, фрагменты со съемочной площадки и интервью с актерами…

Качество: HDTV 1080р
Видео: MPEG-4 AVC, ~ 4784 Кбит/с, 1920x1080, 25 кадр/с
Аудио: AC3, 2 ch, 192 Кбит/с
Продолжительность: 2 х 00:39:30, 1 х 00:23:00
Перевод: Не требуется
Субтитры: Нет

Скриншоты



MediaInfo

General
Unique ID : 183979818728472803402459845369962730206 (0x8A693965833D20709F314236BB2492DE)
Complete name : C:21. А у нас во дворе.. Прерванный сезон. Памяти Сергея Пускепалесаs03.E01.(2022).HDTV.(1080р).by.Nicodem.Files-x.mkv
Format : Matroska
File size : 1.47 GiB
Duration : 41mn 18s
Overall bit rate : 5 077 Kbps
Encoded date : UTC 2023-09-23 19:31:23
Writing application : mkvmerge v7.8.0 ('River Man') 32bit built on Apr 3 2015 12:11:22
Writing library : libebml v1.3.1 + libmatroska v1.4.2
Video
ID : 1
Format : AVC
Format/Info : Advanced Video Codec
Format profile : High@L4.0
Format settings, CABAC : Yes
Format settings, ReFrames : 2 frames
Format settings, GOP : M=1, N=24
Codec ID : V_MPEG4/ISO/AVC
Duration : 41mn 18s
Bit rate mode : Variable
Bit rate : 4 784 Kbps
Maximum bit rate : 7 000 Kbps
Width : 1 920 pixels
Height : 1 080 pixels
Display aspect ratio : 16:9
Frame rate : 25.000 fps
Color space : YUV
Chroma subsampling : 4:2:0
Bit depth : 8 bits
Scan type : Progressive
Bits/(Pixel*Frame) : 0.092
Stream size : 1.38 GiB (94%)
Audio
ID : 2
Format : AC-3
Format/Info : Audio Coding 3
Mode extension : CM (complete main)
Codec ID : A_AC3
Duration : 41mn 18s
Bit rate mode : Constant
Bit rate : 192 Kbps
Channel(s) : 2 channels
Channel positions : Front: L R
Sampling rate : 44.1 KHz
Bit depth : 16 bits
Compression mode : Lossy
Delay relative to video : 9ms
Stream size : 56.7 MiB (4%)

Раздача ведётся путём добавления новых серий

Внимание! Раздача ведётся путём добавления новых серий; при каждом добавлении создаётся новый торрент.
Чтобы начать докачку новой серии, пользователям необходимо сделать следующее:
1. Остановить скачивание;
2. Удалить старый торрент у себя из клиента (старые серии удалять не надо);
3. Скачать новый торрент и запустить его у себя в клиенте вместо старого, при этом указать клиенту путь в старую папку куда и должно происходить скачивание новых серий. Ваш клиент при этом должен произвести хеширование (проверку) старой папки и будет докачивать только те серии, которых у вас ещё нет. Старые серии при этом не удаляются, а продолжают раздаваться! Eсли вы уже удалили старые серии, то предотвратить повторную закачку старых серий можно, отжав галочку в соответствующих местах при запуске нового торрента.
Релиз от:

Release was prepared by RG Files-x

[Profile] [PM]
Display posts:    
Reply to topic

Current time is: 01-Mar 11:14

All times are UTC + 3



You cannot post new topics in this forum
You cannot reply to topics in this forum
You cannot edit your posts in this forum
You cannot delete your posts in this forum
You cannot vote in polls in this forum
You cannot attach files in this forum
You cannot download files in this forum