А у нас во дворе [2 сезон: 1-8 серии из 8] (2019) HDTV 1080i от GeneralFilm

Reply to topic
 
Author Message

olegka7373 ®

Gender: Male

Longevity: 5 years 3 months

Posts: 396

Location: Россия, Новокузнецк

Post 25-Mar-2019 20:01

[Quote]

А у нас во дворе
Год выпуска: 2019
Жанр: Детектив, драма
Выпущено: Россия, АТВ Продакшн
Режиссер: Ольга Музалева
В ролях: Сергей Пускепалис, Равшана Куркова, Ирина Луковская, Андрей Заводюк, Екатерина Кирчак, Юрий Черкасов, Александр Чернявский (II), Евгения Бордзиловская, Дарья Белоусова, Сайдо Курбанов, Анна Уколова, Тимур Нижеметдинов, Шохижахон Турсунбаев, Константин Бураев
О фильме: Продолжение полюбившегося зрителям детективного сериала о нескучных буднях интернациональной пары: русского экс-полицейского Владимира Каленого и красавицы из Узбекистана Мавлюды. Несмотря на разницу менталитетов и вытекающее из неё частое недопонимание, Каленый и Мавлюда — не только харизматичная пара, но и отличная команда, способная раскрыть любое преступление…

Качество: HDTV (1080i)
Видео: MPEG-TS AVC, ~ 5700 Кбит/с, 1920x1080 , 25 кадр/с
Аудио: Русский (AC3, 2 ch, 384 Кбит/с), (MP2, 2 ch, 192 Кбит/с)
Продолжительность: 8 х ~ 00:52:00
Перевод: Не требуется
Субтитры: нет

Скриншоты



MediaInfo

Общее
Идентификатор : 1 (0x1)
Полное имя : D:ЗаписьA u nas vo dvore 2.HDTV(1080i).GeneralFilm1.A u nas vo dvore 2.HDTV(1080i).GeneralFilm.ts
Формат : MPEG-TS
Размер файла : 2,43 Гбайт
Продолжительность : 52 м. 35 с.
Режим общего битрейта : Переменный
Общий поток : 6626 Кбит/сек
Видео
Идентификатор : 1904 (0x770)
Идентификатор меню : 80 (0x50)
Формат : AVC
Формат/Информация : Advanced Video Codec
Профиль формата : High@L4
Параметр CABAC формата : Да
Параметр ReFrames формата : 3 кадра
Идентификатор кодека : 27
Продолжительность : 52 м. 35 с.
Битрейт : 5717 Кбит/сек
Ширина : 1920 пикселей
Высота : 1080 пикселей
Соотношение сторон : 16:9
Частота кадров : 25,000 кадров/сек
Стандарт вещания : Component
Цветовое пространство : YUV
Субдискретизация насыщенности : 4:2:0
Битовая глубина : 8 бит
Тип развёртки : Чересстрочная
Метод сохранения типа развёртки : Раздельные поля
Порядок развёртки : Верхнее поле первое
Бит/(Пиксели*Кадры) : 0.110
Размер потока : 2,10 Гбайт (86%)
Цветовой диапазон : Limited
Основные цвета : BT.709
Характеристики трансфера : BT.709
Коэффициенты матрицы : BT.709
Аудио #1
Идентификатор : 2904 (0xB58)
Идентификатор меню : 80 (0x50)
Формат : AC-3
Формат/Информация : Audio Coding 3
Расширение режима : CM (complete main)
Параметр Endianness формата : Big
Идентификатор кодека : 6
Продолжительность : 52 м. 35 с.
Вид битрейта : Постоянный
Битрейт : 384 Кбит/сек
Каналы : 6 каналов
Расположение каналов : Front: L C R, Side: L R, LFE
Частота : 48,0 КГц
Частота кадров : 31,250 кадров/сек (1536 spf)
Битовая глубина : 16 бит
Метод сжатия : С потерями
Задержка видео : -80 мс.
Размер потока : 144 Мбайт (6%)
Язык : Russian
Аудио #2
Идентификатор : 2905 (0xB59)
Идентификатор меню : 80 (0x50)
Формат : MPEG Audio
Версия формата : Version 1
Профиль формата : Layer 2
Идентификатор кодека : 3
Продолжительность : 52 м. 35 с.
Вид битрейта : Постоянный
Битрейт : 192 Кбит/сек
Каналы : 2 канала
Частота : 48,0 КГц
Метод сжатия : С потерями
Задержка видео : -80 мс.
Размер потока : 72,2 Мбайт (3%)
Язык : Russian
Общее
Идентификатор : 1 (0x1)
Полное имя : D:ЗаписьA u nas vo dvore 2.HDTV(1080i).GeneralFilm2.A u nas vo dvore 2.HDTV(1080i).GeneralFilm.ts
Формат : MPEG-TS
Размер файла : 2,23 Гбайт
Продолжительность : 51 м. 43 с.
Режим общего битрейта : Переменный
Общий поток : 6180 Кбит/сек
Видео
Идентификатор : 1904 (0x770)
Идентификатор меню : 80 (0x50)
Формат : AVC
Формат/Информация : Advanced Video Codec
Профиль формата : High@L4
Параметр CABAC формата : Да
Параметр ReFrames формата : 3 кадра
Идентификатор кодека : 27
Продолжительность : 51 м. 43 с.
Битрейт : 5293 Кбит/сек
Ширина : 1920 пикселей
Высота : 1080 пикселей
Соотношение сторон : 16:9
Частота кадров : 25,000 кадров/сек
Стандарт вещания : Component
Цветовое пространство : YUV
Субдискретизация насыщенности : 4:2:0
Битовая глубина : 8 бит
Тип развёртки : Чересстрочная
Метод сохранения типа развёртки : Раздельные поля
Порядок развёртки : Верхнее поле первое
Бит/(Пиксели*Кадры) : 0.102
Размер потока : 1,91 Гбайт (86%)
Цветовой диапазон : Limited
Основные цвета : BT.709
Характеристики трансфера : BT.709
Коэффициенты матрицы : BT.709
Аудио #1
Идентификатор : 2904 (0xB58)
Идентификатор меню : 80 (0x50)
Формат : AC-3
Формат/Информация : Audio Coding 3
Расширение режима : CM (complete main)
Параметр Endianness формата : Big
Идентификатор кодека : 6
Продолжительность : 51 м. 43 с.
Вид битрейта : Постоянный
Битрейт : 384 Кбит/сек
Каналы : 6 каналов
Расположение каналов : Front: L C R, Side: L R, LFE
Частота : 48,0 КГц
Частота кадров : 31,250 кадров/сек (1536 spf)
Битовая глубина : 16 бит
Метод сжатия : С потерями
Размер потока : 142 Мбайт (6%)
Язык : Russian
Аудио #2
Идентификатор : 2905 (0xB59)
Идентификатор меню : 80 (0x50)
Формат : MPEG Audio
Версия формата : Version 1
Профиль формата : Layer 2
Идентификатор кодека : 3
Продолжительность : 51 м. 43 с.
Вид битрейта : Постоянный
Битрейт : 192 Кбит/сек
Каналы : 2 канала
Частота : 48,0 КГц
Метод сжатия : С потерями
Размер потока : 71,0 Мбайт (3%)
Язык : Russian

Внимание! Раздача ведётся путём добавления новых серий

Раздача ведётся путём добавления новых серий, при каждом добавлении создаётся новый торрент. Чтобы начать докачку новой серии, пользователям необходимо сделать следующее:
- Остановить скачивание.
- Удалить старый торрент у себя из клиента (старые серии удалять не надо).
- Скачать новый торрент и запустить его у себя в клиенте вместо старого, при этом указать клиенту путь в старую папку куда и должно происходить скачивание новых серий.
Ваш клиент при этом должен произвести хеширование (проверку) старой папки (если не производит сам - помогите ему сделать это), и будет докачивать только те серии которых у вас ещё нет. Старые серии при этом не удаляются, а продолжают раздаваться!
Если вы уже удалили старые серии, то предотвратить повторную закачку старых серий можно, отжав галочку в соответствующих местах при запуске нового торрента. По возможности, желательно не удалять старые серии как можно дольше, чтобы релизер не столько продолжал раздавать старые серии, а смог сконцентрироваться на новых.
Релиз:
[Profile] [PM]
Display posts:    
Reply to topic

Current time is: 01-Mar 10:40

All times are UTC + 3



You cannot post new topics in this forum
You cannot reply to topics in this forum
You cannot edit your posts in this forum
You cannot delete your posts in this forum
You cannot vote in polls in this forum
You cannot attach files in this forum
You cannot download files in this forum