Книжная девочка [1-4 серии из 4] (2023) WEB-DLRip от Files-х

Reply to topic
 
Author Message

patriot67 ®

Gender: Male

Longevity: 4 years 6 months

Posts: 302

Post 24-Sep-2023 11:21

[Quote]

Книжная девочка Год выпуска: 2023
Жанр: Мелодрама, драма
Выпущено: Россия, Кинокомпания ООО "Студия Телемастер"
Режиссер: Ольга Кандидатова
В ролях: Дарья Кукарских, Эра Зиганшина, Юлия Шубарева, Артём Карасёв, Иван Паршин, Максим Ханжов, Дарья Румянцева, Алексей Мокеев, Ольга Андилевко, Наталья Высочанская, Антонина Введенская, Валентина Панина, Артём Колязин
О фильме: Женя рано потеряла родителей и выросла в доме властной старорежимной бабки, привыкнув подчиняться ей во всем. Девушку это не гнетет, ведь она больше времени проводит в мире грез и прочитанных сюжетов, чем в реальности. Когда ее дядя, санитарный врач, устраивает племянницу подработать санитаркой в свою больницу, Женя немедленно влюбляется в главного хирурга. Руслан Волчеткин кажется ей настоящим рыцарем в сверкающих доспехах. Но рыцарь женат и, несмотря на явный интерес к Жене, разводиться не намерен: его жена Ольга – ментальный инвалид, и бросить ее немыслимо. Узнав о влюбленности Жени, бабушка заставляет ее немедленно покинуть больницу навсегда и находит для внучки работу в книжном магазине. Но даже оказавшись в лучшем на свете месте, даже встретив интересного и загадочного незнакомца, книжная девочка не может забыть Руслана. Чтобы вытеснить рыцаря из ее сердца, нужен более увлекательный сюжет. И такой сюжет ожидает Женю впереди.
Качество: WEB-DLRip
Видео: XviD, 1600 Кбит/с, 720x400, 25 кадр/с
Аудио: AC3, 2 ch, 192 Кбит/с
Продолжительность: 4 x ~ 00:44:49
Перевод: Не требуется
Cубтитры: Нет

Скриншоты




MediaInfo

General
Complete name : F:\Книжная девочка.(2023).WEB-DLRip.Files-x\01.Книжная девочка.(2023).WEB-DLRip.by.Серый1779.Files-x.mkv
Format : AVI
Format/Info : Audio Video Interleave
File size : 573 MiB
Duration : 44 min 49 s
Overall bit rate : 1 786 kb/s
Writing application : VirtualDubMod 1.5.10.3 | www.virtualdub-fr.org || (build 2550/release)
Writing library : VirtualDubMod build 2550/release
FileExtension_Invalid : avi
Video
ID : 0
Format : MPEG-4 Visual
Format profile : Advanced Simple@L5
Format settings : BVOP1 / Custom Matrix
Format settings, BVOP : 1
Format settings, QPel : No
Format settings, GMC : No warppoints
Format settings, Matrix : Custom
Codec ID : XVID
Codec ID/Hint : XviD
Duration : 44 min 49 s
Bit rate : 1 585 kb/s
Width : 720 pixels
Height : 400 pixels
Display aspect ratio : 16:9
Frame rate : 25.000 FPS
Color space : YUV
Chroma subsampling : 4:2:0
Bit depth : 8 bits
Scan type : Progressive
Compression mode : Lossy
Bits/(Pixel*Frame) : 0.220
Stream size : 508 MiB (89%)
Writing library : XviD 73
Audio
ID : 1
Format : AC-3
Format/Info : Audio Coding 3
Format settings, Endianness : Big
Codec ID : 2000
Duration : 44 min 49 s
Bit rate mode : Constant
Bit rate : 192 kb/s
Channel(s) : 2 channels
Channel positions : Front: L R
Sampling rate : 48.0 kHz
Frame rate : 31.250 FPS (1536 SPF)
Bit depth : 16 bits
Compression mode : Lossy
Stream size : 61.6 MiB (11%)
Alignment : Split accross interleaves
Interleave, duration : 40 ms (1.00 video frame)
Interleave, preload duration : 500 ms
Service kind : Complete Main
Релиз от:

Release was prepared by RG Files-x

[Profile] [PM]
Display posts:    
Reply to topic

Current time is: 28-May 04:19

All times are UTC + 3



You cannot post new topics in this forum
You cannot reply to topics in this forum
You cannot edit your posts in this forum
You cannot delete your posts in this forum
You cannot vote in polls in this forum
You cannot attach files in this forum
You cannot download files in this forum