Книжная девочка [1-4 серии из 4] (2023) WEB-DLRip-AVC от GeneralFilm | КПК

Reply to topic
 
Author Message

GORGIK ®

Gender: Male

Longevity: 5 years 3 months

Posts: 1459

Location: СССР

Post 05-Oct-2023 09:41

[Quote]

Книжная девочка Год выпуска: 2023
Жанр: Мелодрама
Выпущено: Россия, Кинокомпания ООО "Студия Телемастер"
Режиссер: Ольга Кандидатова
В ролях: Дарья Кукарских, Эра Зиганшина, Юлия Шубарева, Артём Карасёв, Иван Паршин, Максим Ханжов, Дарья Румянцева, Алексей Мокеев, Ольга Андилевко, Наталья Высочанская, Антонина Введенская, Валентина Панина, Артём Колязин
О фильме: Женя рано потеряла родителей и выросла в доме властной старорежимной бабки, привыкнув подчиняться ей во всем. Девушку это не гнетет, ведь она больше времени проводит в мире грез и прочитанных сюжетов, чем в реальности. Когда ее дядя, санитарный врач, устраивает племянницу подработать санитаркой в свою больницу, Женя немедленно влюбляется в главного хирурга. Руслан Волчеткин кажется ей настоящим рыцарем в сверкающих доспехах. Но рыцарь женат и, несмотря на явный интерес к Жене, разводиться не намерен: его жена Ольга – ментальный инвалид, и бросить ее немыслимо. Узнав о влюбленности Жени, бабушка заставляет ее немедленно покинуть больницу навсегда и находит для внучки работу в книжном магазине. Но даже оказавшись в лучшем на свете месте, даже встретив интересного и загадочного незнакомца, книжная девочка не может забыть Руслана. Чтобы вытеснить рыцаря из ее сердца, нужен более увлекательный сюжет. И такой сюжет ожидает Женю впереди.

Качество: WEB-DLRip | КПК
Видео: MPEG-4 AVC (x264), 640x360, ~ 500 kbps, 25.000 fps
Аудио: AAC LC, 48.0 KHz, 2 ch, 128 Kbps
Продолжительность: 4 x ~ 00:44:00
Перевод: Не требуется [Русский]
Cубтитры: нет

Скриншоты


MediaInfo

Complete name : D:\кино\Knizhnaya.Devochka.S01.2023.WEB-DLRip-AVC.KPK.GF\Knizhnaya.Devochka.s01e02.2023.WEB-DLRip-AVC.KPK.GF.mp4
Format : MPEG-4
Codec ID : M4V (isom/iso2/avc1)
File size : 204 MiB
Duration : 44mn 55s
Overall bit rate mode : Variable
Overall bit rate : 634 Kbps
Writing application : Lavf53.19.0
Video
ID : 1
Format : AVC
Format/Info : Advanced Video Codec
Format profile : High@L4.1
Format settings, CABAC : Yes
Format settings, ReFrames : 8 frames
Codec ID : avc1
Codec ID/Info : Advanced Video Coding
Duration : 44mn 55s
Bit rate : 500 Kbps
Width : 640 pixels
Height : 360 pixels
Display aspect ratio : 16:9
Frame rate mode : Constant
Frame rate : 25.000 fps
Color space : YUV
Chroma subsampling : 4:2:0
Bit depth : 8 bits
Scan type : Progressive
Bits/(Pixel*Frame) : 0.087
Stream size : 161 MiB (79%)
Writing library : x264 core 146 r2538 121396c
Encoding settings : cabac=1 / ref=8 / deblock=1:-1:-1 / analyse=0x3:0x133 / me=umh / subme=10 / psy=1 / psy_rd=1.00:0.00 / mixed_ref=1 / me_range=24 / chroma_me=1 / trellis=2 / 8x8dct=1 / cqm=0 / deadzone=21,11 / fast_pskip=1 / chroma_qp_offset=-2 / threads=3 / lookahead_threads=1 / sliced_threads=0 / nr=0 / decimate=1 / interlaced=0 / bluray_compat=0 / constrained_intra=0 / bframes=8 / b_pyramid=2 / b_adapt=2 / b_bias=0 / direct=3 / weightb=1 / open_gop=0 / weightp=2 / keyint=250 / keyint_min=126 / scenecut=40 / intra_refresh=0 / rc_lookahead=40 / rc=2pass / mbtree=1 / bitrate=500 / ratetol=1.0 / qcomp=0.60 / qpmin=0 / qpmax=69 / qpstep=4 / cplxblur=20.0 / qblur=0.5 / ip_ratio=1.40 / aq=1:1.00
Menus : 3
Audio
ID : 2
Format : AAC
Format/Info : Advanced Audio Codec
Format profile : LC
Codec ID : 40
Duration : 44mn 55s
Bit rate mode : Variable
Bit rate : 128 Kbps
Channel(s) : 2 channels
Channel positions : Front: L R
Sampling rate : 48.0 KHz
Frame rate : 46.875 fps (1024 spf)
Compression mode : Lossy
Stream size : 41.1 MiB (20%)
Default : Yes
Alternate group : 1
Menus : 3
Релиз от:
[Profile] [PM]
Display posts:    
Reply to topic

Current time is: 01-Mar 10:18

All times are UTC + 3



You cannot post new topics in this forum
You cannot reply to topics in this forum
You cannot edit your posts in this forum
You cannot delete your posts in this forum
You cannot vote in polls in this forum
You cannot attach files in this forum
You cannot download files in this forum