Волшебный участок [1-8 серии из 8] (2023) WEBRip-AVC от Files-х

Reply to topic
 
Author Message

bond74 ®

Gender: Male

Longevity: 5 years 3 months

Posts: 2266

Post 10-Nov-2023 23:02

[Quote]

Волшебный участок Год выпуска: 2023
Жанр: Боевик, фэнтези, комедия, детектив
Выпущено: Россия, Место силы, Okko, Originals Production
Режиссер: Степан Гордеев
В ролях: Николай Наумов, Ева Смирнова (II), Филипп Янковский, Татьяна Догилева, Илья Соболев, Гоша Куценко, Дарья Мельникова, Мария Смольникова, Алексей Золотовицкий, Андрей Добровольский, Ида Галич, Павел Деревянко, Мария Ахметзянова, Ольга Медынич, Сергей Чихачёв
О фильме: Лёха — бывший полицейский. В разгар запоя он узнает о смертельной болезни своей сестры Кати. Она не хочет, чтобы после смерти ее дочку отдали в детский дом, и просит Лёху взяться за голову, чтобы он стал опекуном восьмилетней девочки. Лёха делает всё, чтобы помочь сестре: поднимает старые связи и устраивается на работу в полицейский участок. Участок оказывается непростым. Преступники, которых должен ловить Лёха — сказочные персонажи: Змей Горыныч, Баба Яга и прочая нечисть. И если проблем с поимкой злодеев у бывшего снайпера не возникает, то попытки стать хорошим опекуном становятся для Лёхи настоящим испытанием.

Качество: WEBRip
Видео: MPEG-4 AVC, ~ 1600 Кбит/с, 720x304
Аудио: Русский (E-AC3, 6 ch, 384 Кбит/с), (AC3, 6 ch, 384 Кбит/с)
Продолжительность: 8 x ~ 00:50:00
Язык: Русский
Cубтитры: Нет

Скриншоты



MediaInfo

Общее
Уникальный идентификатор : 165160655870710669271574780140868834099 (0x7C40C907F3FA41FDD4C9DDB5D96B9333)
Полное имя : C:\films\ Волшебный участок.2023.WEB-DLRip.Files-x\01. Волшебный участок.2023.WEB-DLRip.Files-x.mkv
Формат : Matroska
Версия формата : Version 4
Размер файла : 1,14 Гбайт
Продолжительность : 52 м. 12 с.
Общий поток : 3 138 Кбит/сек
Частота кадров : 25,000 кадров/сек
Дата кодирования : 2023-11-09 08:47:06 UTC
Программа кодирования : mkvmerge v32.0.0 ('Astral Progressions') 64-bit
Библиотека кодирования : libebml v1.3.7 + libmatroska v1.5.0
Видео
Идентификатор : 1
Формат : AVC
Формат/Информация : Advanced Video Codec
Профиль формата : High@L4.1
Настройки формата : CABAC / 9 Ref Frames
Параметр CABAC формата : Да
Параметр RefFrames формата : 9 кадров
Идентификатор кодека : V_MPEG4/ISO/AVC
Продолжительность : 52 м. 12 с.
Битрейт : 1 600 Кбит/сек
Ширина : 720 пикселей
Высота : 304 пикселя
Соотношение сторон : 2,35:1
Режим частоты кадров : Постоянный
Частота кадров : 25,000 кадров/сек
Цветовое пространство : YUV
Субдискретизация насыщенности : 4:2:0
Битовая глубина : 8 бит
Тип развёртки : Прогрессивная
Бит/(Пиксели*Кадры) : 0.292
Размер потока : 597 Мбайт (51%)
Библиотека кодирования : x264 core 146 r2538 121396c
Настройки программы : cabac=1 / ref=9 / deblock=1:-2:-1 / analyse=0x3:0x133 / me=umh / subme=9 / psy=1 / psy_rd=1.00:0.15 / mixed_ref=1 / me_range=32 / chroma_me=1 / trellis=2 / 8x8dct=1 / cqm=0 / deadzone=21,11 / fast_pskip=0 / chroma_qp_offset=-3 / threads=18 / lookahead_threads=2 / sliced_threads=0 / nr=0 / decimate=1 / interlaced=0 / bluray_compat=0 / constrained_intra=0 / bframes=9 / b_pyramid=2 / b_adapt=2 / b_bias=0 / direct=1 / weightb=1 / open_gop=0 / weightp=2 / keyint=250 / keyint_min=25 / scenecut=40 / intra_refresh=0 / rc=2pass / mbtree=0 / bitrate=1600 / ratetol=1.0 / qcomp=0.60 / qpmin=0 / qpmax=69 / qpstep=4 / cplxblur=20.0 / qblur=0.5 / ip_ratio=1.40 / pb_ratio=1.30 / aq=2:1.00
Default : Да
Forced : Нет
Цветовой диапазон : Limited
Основные цвета : BT.709
Характеристики трансфера : BT.709
Коэффициенты матрицы : BT.709
Аудио #1
Идентификатор : 2
Формат : E-AC-3
Формат/Информация : Enhanced AC-3
Коммерческое название : Dolby Digital Plus
Идентификатор кодека : A_EAC3
Продолжительность : 52 м. 12 с.
Вид битрейта : Постоянный
Битрейт : 384 Кбит/сек
Каналы : 6 каналов
Channel layout : L R C LFE Ls Rs
Частота : 48,0 КГц
Частота кадров : 31,250 кадров/сек (1536 SPF)
Метод сжатия : С потерями
Размер потока : 143 Мбайт (12%)
Язык : Russian
Service kind : Complete Main
Default : Да
Forced : Нет
Аудио #2
Идентификатор : 3
Формат : E-AC-3
Формат/Информация : Enhanced AC-3
Коммерческое название : Dolby Digital Plus
Идентификатор кодека : A_EAC3
Продолжительность : 52 м. 12 с.
Вид битрейта : Постоянный
Битрейт : 384 Кбит/сек
Каналы : 6 каналов
Channel layout : L R C LFE Ls Rs
Частота : 48,0 КГц
Частота кадров : 31,250 кадров/сек (1536 SPF)
Метод сжатия : С потерями
Размер потока : 143 Мбайт (12%)
Заголовок : 18+
Язык : Russian
Service kind : Complete Main
Default : Нет
Forced : Нет
Аудио #3
Идентификатор : 4
Формат : AC-3
Формат/Информация : Audio Coding 3
Коммерческое название : Dolby Digital
Идентификатор кодека : A_AC3
Продолжительность : 52 м. 12 с.
Вид битрейта : Постоянный
Битрейт : 384 Кбит/сек
Каналы : 6 каналов
Channel layout : L R C LFE Ls Rs
Частота : 48,0 КГц
Частота кадров : 31,250 кадров/сек (1536 SPF)
Метод сжатия : С потерями
Размер потока : 143 Мбайт (12%)
Язык : Russian
Service kind : Complete Main
Default : Нет
Forced : Нет
Аудио #4
Идентификатор : 5
Формат : AC-3
Формат/Информация : Audio Coding 3
Коммерческое название : Dolby Digital
Идентификатор кодека : A_AC3
Продолжительность : 52 м. 12 с.
Вид битрейта : Постоянный
Битрейт : 384 Кбит/сек
Каналы : 6 каналов
Channel layout : L R C LFE Ls Rs
Частота : 48,0 КГц
Частота кадров : 31,250 кадров/сек (1536 SPF)
Метод сжатия : С потерями
Размер потока : 143 Мбайт (12%)
Заголовок : 18+
Язык : Russian
Service kind : Complete Main
Default : Нет
Forced : Нет

Внимание! Раздача ведётся путём добавления новых серий

Раздача ведётся путём добавления новых серий, при каждом добавлении создаётся новый торрент. Чтобы начать докачку новой серии, пользователям необходимо сделать следующее:
- Остановить скачивание.
- Удалить старый торрент у себя из клиента (старые серии удалять не надо).
- Скачать новый торрент и запустить его у себя в клиенте вместо старого, при этом указать клиенту путь в старую папку куда и должно происходить скачивание новых серий.
Ваш клиент при этом должен произвести хеширование (проверку) старой папки (если не производит сам - помогите ему сделать это), и будет докачивать только те серии которых у вас ещё нет. Старые серии при этом не удаляются, а продолжают раздаваться!
Релиз от:

Release was prepared by RG Files-x

[Profile] [PM]
Display posts:    
Reply to topic

Current time is: 02-Mar 07:09

All times are UTC + 3



You cannot post new topics in this forum
You cannot reply to topics in this forum
You cannot edit your posts in this forum
You cannot delete your posts in this forum
You cannot vote in polls in this forum
You cannot attach files in this forum
You cannot download files in this forum