Мафия – дело семейное [1 сезон: 1-17 серии из 17] (2022) SATRip от A®GO

Reply to topic
 
Author Message

Argo ®

Gender: Male

Longevity: 6 months 20 days

Posts: 27

Post 27-Nov-2023 17:04

[Quote]

Мафия – дело семейное Год выпуска: 2022
Жанр: Комедия, криминал
Выпущено: Россия, Леан-М, Тим Филмз
Режиссер: Миша Поляков
В ролях: Ингрид Олеринская, Ефим Петрунин, Александр Робак, Фёдор Лавров, Анна Уколова, Ксения Кутепова, Влад Прохоров, Ульяна Молдованова, Ольга Тумайкина, Данил Тябин, Владислав Воробей, Филипп Ершов, Жанна Эппле, Александр Ревенко, Арсений Сергеев
О фильме: Молодые адвокаты Паша Скворцов и Яна Синицына решают перед свадьбой познакомить родных. Но при встрече выясняется, что много лет назад отец Паши, подполковник полиции, посадил в тюрьму отца Яны. И пока мамы стараются помирить семейства, Скворцов-старший делает всё, чтобы сын отказался от невесты с подозрительными родственниками.
Качество: SATRip
Видео: XviD, ~ 1700 Кбит/с, 720x400, 25 кадр/с
Аудио: MP3, 2 ch, 192 Кбит/с
Продолжительность: ~ 00:24:00
Перевод: Не требуется [Русский]
Cубтитры: нет

Скриншоты




MediaInfo

MediaInfoLib - v0.7.58
General
Complete name : D:\Диск\Мафия - дело семейное_1 сезон_SATRip_A®GO\Мафия - дело семейное_1 сезон_1 серия_SATRip_A®GO.avi
Format : AVI
Format/Info : Audio Video Interleave
File size : 303 MiB
Duration : 22mn 16s
Overall bit rate : 1 902 Kbps
Writing application : VirtualDubMod 1.5.10.3 | www.virtualdub-fr.org || (build 2550/release)
Writing library : VirtualDubMod build 2550/release
Video
ID : 0
Format : MPEG-4 Visual
Format profile : Advanced Simple@L5
Format settings, BVOP : 1
Format settings, QPel : No
Format settings, GMC : No warppoints
Format settings, Matrix : Default (MPEG)
Codec ID : XVID
Codec ID/Hint : XviD
Duration : 22mn 16s
Bit rate : 1 700 Kbps
Width : 720 pixels
Height : 400 pixels
Display aspect ratio : 16:9
Frame rate : 25.000 fps
Color space : YUV
Chroma subsampling : 4:2:0
Bit depth : 8 bits
Scan type : Progressive
Compression mode : Lossy
Bits/(Pixel*Frame) : 0.236
Stream size : 271 MiB (89%)
Writing library : XviD 1.2.1 (UTC 2008-12-04)
Audio
ID : 1
Format : MPEG Audio
Format version : Version 1
Format profile : Layer 3
Codec ID : 55
Codec ID/Hint : MP3
Duration : 22mn 16s
Bit rate mode : Constant
Bit rate : 192 Kbps
Channel(s) : 2 channels
Sampling rate : 48.0 KHz
Compression mode : Lossy
Stream size : 30.6 MiB (10%)
Alignment : Aligned on interleaves
Interleave, duration : 40 ms (1.00 video frame)
Interleave, preload duration : 504 ms
Writing library : LAME3.99r
Encoding settings : -m s -V 4 -q 2 -lowpass 18.6 -b 192

Внимание! Раздача ведётся путём добавления новых серий

Раздача ведётся путём добавления новых серий, при каждом добавлении создаётся новый торрент. Чтобы начать докачку новой серии, пользователям необходимо сделать следующее:
- Остановить скачивание.
- Удалить старый торрент у себя из клиента (старые серии удалять не надо).
- Скачать новый торрент и запустить его у себя в клиенте вместо старого, при этом указать клиенту путь в старую папку куда и должно происходить скачивание новых серий.
Ваш клиент при этом должен произвести хеширование (проверку) старой папки (если не производит сам - помогите ему сделать это), и будет докачивать только те серии которых у вас ещё нет. Старые серии при этом не удаляются, а продолжают раздаваться!
Релиз от: A®GO
[Profile] [PM]
Display posts:    
Reply to topic

Current time is: 02-Mar 06:37

All times are UTC + 3



You cannot post new topics in this forum
You cannot reply to topics in this forum
You cannot edit your posts in this forum
You cannot delete your posts in this forum
You cannot vote in polls in this forum
You cannot attach files in this forum
You cannot download files in this forum