Оффлайн [1-10 серии из 10 + Фильм о фильме] (2022) WEB-DLRip от Files-x

Reply to topic
 
Author Message

Серый1779 ®

Gender: Male

Longevity: 5 years 3 months

Posts: 3405

Location: Украина

Post 07-Dec-2023 19:53

[Quote]

Оффлайн
Год выпуска: 2022
Жанр: Триллер, детектив, драма
Выпущено: Россия, Кинокомпания "BUBBLEGUM PRODUCTION "
Режиссер: Кирилл Плетнёв
В ролях: Никита Ефремов, Денис Шведов, Никита Кологривый, Полина Максимова, Альфия Закирова, Марина Ворожищева, Алёна Константинова, Тина Стойилкович, Егор Кенжаметов, Игорь Черневич, Риналь Мухаметов, Полина Пушкарук, Алексей Шевченков, Дмитрий Ульянов, Анна Каменкова, Никита Карпинский, Павел Чернышев, Даниил Белых, Александр Фисенко, Алексей Коряков, Полина Айнутдинова, Василий Михайлов, Николай Хмелёв, Михаил Водзуми, Сергей Покопцев, Егор Ковалёв, Александр Комиссаров, Максим Линников, Сергей Легостаев, Александр Макаршин, Александр Мякушко, Геннадий Семёнов, Валентин Самохин, Евгений Харланов, Матвей Черных, Алексей Юдников, Серафим Долбунов, Константин Умрихин, Алёна Ицкова, Карина Шишлянникова
О сериале: BeHappy - секретное невидимое приложение, которое служит для покупки наркотиков через смартфон. Его пользователи сталкиваются с серьезным противником, который прячется под именем Анонимус. Он сообщает им, что сумел раскрыть данные всех, кто когда-либо пользовался этим приложением и теперь он дает им выбор - пойти в полицию и во всем признаться или сыграть в игру со смертью. Что будет, если в этой игре проиграть, становится ясно, когда пользователи BeHappy получают фото кладмена с перерезанным горлом.

Качество: WEB-DLRip
Видео: XviD, ~ 1600 Кбит/с, 720x304, 25 кадр/с
Аудио: AC3, 6 ch, 384 Кбит/с | Без цензуры
Продолжительность: 11 x ~ 00:53:20
Перевод: Не требуется
Субтитры: Нет

Скриншоты

MediaInfo

General
Complete name: F:\fiiles x\Оффлайн..2022.WEB-DLRip.Files-x\02. Оффлайн..2022.WEB-DLRip.Files-x.avi
Format: AVI
Format/Info: Audio Video Interleave
File size: 678 MiB
Duration: 48 min 50 s
Overall bit rate: 1 942 kb/s
Writing application: VirtualDubMod 1.5.10.3 | https://www.virtualdub-fr.org || (build 2550/release)
Writing library: VirtualDubMod build 2550/release
Video
ID: 0
Format: MPEG-4 Visual
Format profile: Advanced Simple@L5
Format settings: BVOP1 / Custom Matrix
Format settings, BVOP: 1
Format settings, QPel: No
Format settings, GMC: No warppoints
Format settings, Matrix: Custom
Codec ID: XVID
Codec ID/Hint: XviD
Duration: 48 min 50 s
Bit rate: 1 548 kb/s
Width: 720 pixels
Height: 304 pixels
Display aspect ratio: 2.35:1
Frame rate: 25.000 FPS
Color space: YUV
Chroma subsampling: 4:2:0
Bit depth: 8 bits
Scan type: Progressive
Compression mode: Lossy
Bits/(Pixel*Frame): 0.283
Stream size: 541 MiB (80%)
Writing library: XviD 73
Audio
ID: 1
Format: AC-3
Format/Info: Audio Coding 3
Commercial name: Dolby Digital
Codec ID: 2000
Duration: 48 min 50 s
Bit rate mode: Constant
Bit rate: 384 kb/s
Channel(s): 6 channels
Channel layout: L R C LFE Ls Rs
Sampling rate: 48.0 kHz
Frame rate: 31.250 FPS (1536 SPF)
Compression mode: Lossy
Stream size: 134 MiB (20%)
Alignment: Split across interleaves
Interleave, duration: 40 ms (1.00 video frame)
Interleave, preload duratio: 500 ms
Service kind: Complete Main

Внимание! Раздача ведётся путём добавления новых серий

Раздача ведётся путём добавления новых серий, при каждом добавлении создаётся новый торрент. Чтобы начать докачку новой серии, пользователям необходимо сделать следующее:
- Остановить скачивание.
- Удалить старый торрент у себя из клиента (старые серии удалять не надо).
- Скачать новый торрент и запустить его у себя в клиенте вместо старого, при этом указать клиенту путь в старую папку куда и должно происходить скачивание новых серий.
Ваш клиент при этом должен произвести хеширование (проверку) старой папки (если не производит сам - помогите ему сделать это), и будет докачивать только те серии которых у вас ещё нет. Старые серии при этом не удаляются, а продолжают раздаваться!
Релиз от:
[Profile] [PM]
Display posts:    
Reply to topic

Current time is: 02-Mar 07:17

All times are UTC + 3



You cannot post new topics in this forum
You cannot reply to topics in this forum
You cannot edit your posts in this forum
You cannot delete your posts in this forum
You cannot vote in polls in this forum
You cannot attach files in this forum
You cannot download files in this forum