Оффлайн [2 сезон: 1-10 серия из 10] (2023) WEBRip-AVC от Files-х

Reply to topic
 
Author Message

bond74 ®

Gender: Male

Longevity: 5 years 3 months

Posts: 2266

Post 07-Dec-2023 20:25

[Quote]

Оффлайн Год выпуска: 2023
Жанр: Триллер, детектив, драма
Выпущено: Россия, Кинокомпания "UBBLEGUM PRODUCTION"
Режиссер: Кирилл Плетнёв
В ролях: Никита Ефремов, Денис Шведов, Никита Кологривый, Полина Максимова, Альфия Закирова, Марина Ворожищева, Алёна Константинова, Тина Стойилкович, Егор Кенжаметов, Игорь Черневич, Риналь Мухаметов, Полина Пушкарук, Алексей Шевченков, Дмитрий Ульянов (I), Анна Каменкова
О фильме: Продолжении истории поднимается на следующую ступень киберпреступности - шпионаж, где ставки значительно выше, а соперники куда умнее и хитрее любых наркодилеров. Расту предстоит сыграть в игру с кем-то, кто способен продумывать свой план на несколько шагов вперед. Единственный шанс для победы – быть на шаг дальше, а любая ошибка будет стоить очень дорого… В этом противостоянии Раст становится все больше похожим на главного антагониста и в итоге встает перед выбором: принять, что он гениальный киберпреступник, который все лучше чувствует себя в этом темном мире – или что он любящий муж и отец, все еще надеющийся собрать свою семью вместе.

Качество: WEBRip-AVC
Видео: MMPEG-4 AVC, ~ 1600 Кбит/с, 720х304, 25 кадр/с
Аудио №1: AC3, 6 ch, 384 Кбит/с | С цензурой
Продолжительность: 8 х ~ 00:49:22
Перевод: Не требуется
Cубтитры: Нет

Скриншоты


MediaInfo

Общее
Уникальный идентификатор : 247778710107666479348068876447112939884 (0xBA687198CCEAA0D288D0EC61EEDEC96C)
Полное имя : C:\films\Оффлайн .S02.2023.WEB-DLRip.Files-x\01. Оффлайн .S02.2023.WEB-DLRip.Files-x.mkv
Формат : Matroska
Версия формата : Version 2
Размер файла : 701 Мбайт
Продолжительность : 49 м. 22 с.
Общий поток : 1 985 Кбит/сек
Частота кадров : 25,000 кадров/сек
Дата кодирования : 2023-12-07 08:41:36 UTC
Программа кодирования : mkvmerge v7.8.0 ('River Man') 32bit built on Apr 3 2015 12:11:22
Библиотека кодирования : libebml v1.3.1 + libmatroska v1.4.2
Видео
Идентификатор : 1
Формат : AVC
Формат/Информация : Advanced Video Codec
Профиль формата : High@L4.1
Настройки формата : CABAC / 9 Ref Frames
Параметр CABAC формата : Да
Параметр RefFrames формата : 9 кадров
Идентификатор кодека : V_MPEG4/ISO/AVC
Продолжительность : 49 м. 22 с.
Битрейт : 1 600 Кбит/сек
Ширина : 720 пикселей
Высота : 304 пикселя
Соотношение сторон : 2,35:1
Режим частоты кадров : Постоянный
Частота кадров : 25,000 кадров/сек
Цветовое пространство : YUV
Субдискретизация насыщенности : 4:2:0
Битовая глубина : 8 бит
Тип развёртки : Прогрессивная
Бит/(Пиксели*Кадры) : 0.292
Размер потока : 552 Мбайт (79%)
Библиотека кодирования : x264 core 146 r2538 121396c
Настройки программы : cabac=1 / ref=9 / deblock=1:-2:-1 / analyse=0x3:0x133 / me=umh / subme=9 / psy=1 / psy_rd=1.00:0.15 / mixed_ref=1 / me_range=32 / chroma_me=1 / trellis=2 / 8x8dct=1 / cqm=0 / deadzone=21,11 / fast_pskip=0 / chroma_qp_offset=-3 / threads=18 / lookahead_threads=2 / sliced_threads=0 / nr=0 / decimate=1 / interlaced=0 / bluray_compat=0 / constrained_intra=0 / bframes=9 / b_pyramid=2 / b_adapt=2 / b_bias=0 / direct=1 / weightb=1 / open_gop=0 / weightp=2 / keyint=250 / keyint_min=25 / scenecut=40 / intra_refresh=0 / rc=2pass / mbtree=0 / bitrate=1600 / ratetol=1.0 / qcomp=0.60 / qpmin=0 / qpmax=69 / qpstep=4 / cplxblur=20.0 / qblur=0.5 / ip_ratio=1.40 / pb_ratio=1.30 / aq=2:1.00
Default : Да
Forced : Нет
Цветовой диапазон : Limited
Основные цвета : BT.709
Характеристики трансфера : BT.709
Коэффициенты матрицы : BT.709
Аудио
Идентификатор : 2
Формат : AC-3
Формат/Информация : Audio Coding 3
Коммерческое название : Dolby Digital
Идентификатор кодека : A_AC3
Продолжительность : 49 м. 22 с.
Вид битрейта : Постоянный
Битрейт : 384 Кбит/сек
Каналы : 6 каналов
Channel layout : L R C LFE Ls Rs
Частота : 48,0 КГц
Частота кадров : 31,250 кадров/сек (1536 SPF)
Метод сжатия : С потерями
Размер потока : 136 Мбайт (19%)
Service kind : Complete Main
Default : Да
Forced : Нет

Внимание! Раздача ведётся путём добавления новых серий

Раздача ведётся путём добавления новых серий, при каждом добавлении создаётся новый торрент. Чтобы начать докачку новой серии, пользователям необходимо сделать следующее:
- Остановить скачивание.
- Удалить старый торрент у себя из клиента (старые серии удалять не надо).
- Скачать новый торрент и запустить его у себя в клиенте вместо старого, при этом указать клиенту путь в старую папку куда и должно происходить скачивание новых серий.
Ваш клиент при этом должен произвести хеширование (проверку) старой папки (если не производит сам - помогите ему сделать это), и будет докачивать только те серии которых у вас ещё нет. Старые серии при этом не удаляются, а продолжают раздаваться!
Релиз от:

Release was prepared by RG Files-x

[Profile] [PM]
Display posts:    
Reply to topic

Current time is: 02-Mar 07:17

All times are UTC + 3



You cannot post new topics in this forum
You cannot reply to topics in this forum
You cannot edit your posts in this forum
You cannot delete your posts in this forum
You cannot vote in polls in this forum
You cannot attach files in this forum
You cannot download files in this forum