Ищейка [7 сезон: 1-16 серии из 16] (2023) WEBRip-AVC от Files-x

Reply to topic
 
Author Message

Серый1779 ®

Gender: Male

Longevity: 5 years 6 months

Posts: 3591

Location: Украина

Post 12-Dec-2023 12:58

[Quote]

Ищейка Год выпуска: 2023
Жанр: Детектив, криминал
Выпущено: Россия, Кинокомпания "Star Media"
Режиссер: Андрей Головков
В ролях: Анна Банщикова, Денис Бургазлиев, Александр Макогон, Василий Буткевич, Эдуард Чекмазов, Владимир Николенко, Анатолий Гущин, Ирина Пулина, Анастасия Великородная, Мария Шаханова, Максим Лагашкин, Елена Валюшкина, Полина Кутепова, Пётр Рыков, Никита Тарасов, Артём Сучков, Алексей Барабаш, Владислав Котлярский, Александр Обласов, Сергей Тэсслер, Мирослава Михайлова, Сергей Комаров (II), Роман Лях, Александра Булычёва, Тарас Епифанцев, Евгения Яр, Венчислав Хотяновский, Зоя Мансурова, Аслан Гучетль, Микаэль Амирханов, Кирилл Каганович, Тина Стойилкович, Тарас Кузьмин, Яна Крайнова, Евдокия Германова, Дмитрий Куличков
О фильме: Александра Ивановна Кушнир начинает новую жизнь в новой команде, обычным опером, в отделе расследований город-курорт Сочи. Снова свободная, увлеченная только работой. Семейная жизнь осталась в прошлом. Некоторые коллеги считают Сашу заносчивой всезнайкой, которая везде сует свой нос. А то, что она с блеском расследует самые сложные дела, не добавляет ей популярности. С новым начальником Розовой у Саши тоже непростые отношения… Спустя время к Кушнир приезжает начальник – Аркадий Ольховский и все ее планы снова рушатся.
Качество: WEBRip-AVC
Видео: MPEG-4 AVC, ~ 1600 Кбит/с, 1024x576, 25 кадр/с
Аудио: AC3, 2 ch, 192 Кбит/с
Продолжительность: 16 х ~ 00:52:07
Перевод: Не требуется [Русский]
Cубтитры: Русские

Скриншоты



MediaInfo

General
Unique ID : 184822820076398245510621401359668087779 (0x8B0B94926A5D1F369F7654FA404E0BE3)
Complete name : F:\Ищейка.S07.(2023).WEB-DLRip.(AVC).Files-x\01.Ищейка.S07.(2023).WEBRip.(AVC).by.Серый1779.Files-x.mkv
Format : Matroska
Format version : Version 2
File size : 669 MiB
Duration : 52 min 7 s
Overall bit rate : 1 794 kb/s
Encoded date : UTC 2023-12-12 09:35:37
Writing application : mkvmerge v7.8.0 ('River Man') 32bit built on Apr 3 2015 12:11:22
Writing library : libebml v1.3.1 + libmatroska v1.4.2
Video
ID : 1
Format : AVC
Format/Info : Advanced Video Codec
Format profile : High@L4.1
Format settings : CABAC / 9 Ref Frames
Format settings, CABAC : Yes
Format settings, RefFrames : 9 frames
Codec ID : V_MPEG4/ISO/AVC
Duration : 52 min 7 s
Bit rate : 1 600 kb/s
Width : 1 024 pixels
Height : 576 pixels
Display aspect ratio : 16:9
Frame rate mode : Constant
Frame rate : 25.000 FPS
Color space : YUV
Chroma subsampling : 4:2:0
Bit depth : 8 bits
Scan type : Progressive
Bits/(Pixel*Frame) : 0.109
Stream size : 584 MiB (87%)
Writing library : x264 core 146 r2538 121396c
Encoding settings : cabac=1 / ref=9 / deblock=1:-2:-1 / analyse=0x3:0x133 / me=umh / subme=9 / psy=1 / psy_rd=1.00:0.15 / mixed_ref=1 / me_range=32 / chroma_me=1 / trellis=2 / 8x8dct=1 / cqm=0 / deadzone=21,11 / fast_pskip=0 / chroma_qp_offset=-3 / threads=18 / lookahead_threads=3 / sliced_threads=0 / nr=0 / decimate=1 / interlaced=0 / bluray_compat=0 / constrained_intra=0 / bframes=9 / b_pyramid=2 / b_adapt=2 / b_bias=0 / direct=1 / weightb=1 / open_gop=0 / weightp=2 / keyint=250 / keyint_min=25 / scenecut=40 / intra_refresh=0 / rc=2pass / mbtree=0 / bitrate=1600 / ratetol=1.0 / qcomp=0.60 / qpmin=0 / qpmax=69 / qpstep=4 / cplxblur=20.0 / qblur=0.5 / ip_ratio=1.40 / pb_ratio=1.30 / aq=2:1.00
Default : Yes
Forced : No
Color range : Limited
Color primaries : BT.709
Transfer characteristics : BT.709
Matrix coefficients : BT.709
Audio
ID : 2
Format : AC-3
Format/Info : Audio Coding 3
Format settings, Endianness : Big
Codec ID : A_AC3
Duration : 52 min 7 s
Bit rate mode : Constant
Bit rate : 192 kb/s
Channel(s) : 2 channels
Channel positions : Front: L R
Sampling rate : 48.0 kHz
Frame rate : 31.250 FPS (1536 SPF)
Bit depth : 16 bits
Compression mode : Lossy
Stream size : 71.6 MiB (11%)
Service kind : Complete Main
Default : Yes
Forced : No

Внимание! Раздача ведётся путём добавления новых серий

Раздача ведётся путём добавления новых серий, при каждом добавлении создаётся новый торрент. Чтобы начать докачку новой серии, пользователям необходимо сделать следующее:
- Остановить скачивание.
- Удалить старый торрент у себя из клиента (старые серии удалять не надо).
- Скачать новый торрент и запустить его у себя в клиенте вместо старого, при этом указать клиенту путь в старую папку куда и должно происходить скачивание новых серий.
Ваш клиент при этом должен произвести хеширование (проверку) старой папки (если не производит сам - помогите ему сделать это), и будет докачивать только те серии которых у вас ещё нет. Старые серии при этом не удаляются, а продолжают раздаваться!
Релиз от:

Release was prepared by RG Files-x

[Profile] [PM]

Trenzel

Longevity: 5 years 5 months

Posts: 45

Post 15-Dec-2023 14:11 (after 3 days)

[Quote]

Серый1779, в 4 серии отсутствуют субтитры. В первых трёх сериях субтитры есть.
Планируете добавить?
[Profile] [PM]

Серый1779 ®

Gender: Male

Longevity: 5 years 6 months

Posts: 3591

Location: Украина

Post 15-Dec-2023 20:33 (after 6 hours)

[Quote]

39173Trenzel
Как только появяться на первристочнике - будут добавлены!
[Profile] [PM]

Серый1779 ®

Gender: Male

Longevity: 5 years 6 months

Posts: 3591

Location: Украина

Post 20-Dec-2023 01:34 (after 4 days)

[Quote]

Субтитры во всех сериях!
[Profile] [PM]

Trenzel

Longevity: 5 years 5 months

Posts: 45

Post 16-May-2024 09:10 (after 4 months 27 days)

[Quote]

Серый1779, в 9 и 10 серии субтитры планируете добавить?
[Profile] [PM]

Серый1779 ®

Gender: Male

Longevity: 5 years 6 months

Posts: 3591

Location: Украина

Post 21-May-2024 09:50 (after 5 days)

[Quote]

40606Серый1779, в 9 и 10 серии субтитры планируете добавить?
В 9-ю - 12-ю серии субтитры добавлены.
[Profile] [PM]
Display posts:    
Reply to topic

Current time is: 31-May 01:15

All times are UTC + 3



You cannot post new topics in this forum
You cannot reply to topics in this forum
You cannot edit your posts in this forum
You cannot delete your posts in this forum
You cannot vote in polls in this forum
You cannot attach files in this forum
You cannot download files in this forum