Ищейка [7 сезон: 1-16 серии из 16] (2023) WEB-DLRip от Files-x

Reply to topic
 
Author Message

bond74 ®

Gender: Male

Longevity: 5 years 6 months

Posts: 2404

Post 12-Dec-2023 20:20

[Quote]

Ищейка Год выпуска: 2023
Жанр: Детектив, криминал
Выпущено: Россия, Кинокомпания "Star Media"
Режиссер: Андрей Головков
В ролях: Анна Банщикова, Денис Бургазлиев, Александр Макогон, Василий Буткевич, Эдуард Чекмазов, Владимир Николенко, Анатолий Гущин, Ирина Пулина, Анастасия Великородная, Мария Шаханова, Максим Лагашкин, Елена Валюшкина, Полина Кутепова, Пётр Рыков, Никита Тарасов, Артём Сучков, Алексей Барабаш, Владислав Котлярский, Александр Обласов, Сергей Тэсслер, Мирослава Михайлова, Сергей Комаров (II), Роман Лях, Александра Булычёва, Тарас Епифанцев, Евгения Яр, Венчислав Хотяновский, Зоя Мансурова, Аслан Гучетль, Микаэль Амирханов, Кирилл Каганович, Тина Стойилкович, Тарас Кузьмин, Яна Крайнова, Евдокия Германова, Дмитрий Куличков
О фильме: Александра Ивановна Кушнир начинает новую жизнь в новой команде, обычным опером, в отделе расследований город-курорт Сочи. Снова свободная, увлеченная только работой. Семейная жизнь осталась в прошлом. Некоторые коллеги считают Сашу заносчивой всезнайкой, которая везде сует свой нос. А то, что она с блеском расследует самые сложные дела, не добавляет ей популярности. С новым начальником Розовой у Саши тоже непростые отношения… Спустя время к Кушнир приезжает начальник – Аркадий Ольховский и все ее планы снова рушатся.
Качество: WEB-DLRip
Видео:XviD, ~ 1600 Кбит/с, 720x400, 25 кадр/с
Аудио: AC3, 2 ch, 192 Кбит/с
Продолжительность: 3 х ~ 00:52:07
Перевод: Не требуется [Русский]
Cубтитры: Нет

Скриншоты


MediaInfo

Общее
Полное имя : C:\films\Ищейка .S07.2023.WEBRip .Files-x\01. Ищейка .S07.2023.WEBRip .Files-x.avi
Формат : AVI
Формат/Информация : Audio Video Interleave
Настройки формата : BitmapInfoHeader / WaveFormatEx
Размер файла : 631 Мбайт
Продолжительность : 52 м. 7 с.
Общий поток : 1 692 Кбит/сек
Частота кадров : 25,000 кадров/сек
Программа кодирования : VirtualDubMod 1.5.10.3 | www.virtualdub-fr.org || (build 2550/release)
Библиотека кодирования : VirtualDubMod build 2550/release
Видео
Идентификатор : 0
Формат : MPEG-4 Visual
Профиль формата : Advanced Simple@L5
Настройки формата : BVOP1 / Custom Matrix
Параметр BVOP формата : 1
Параметр QPel формата : Нет
Параметр GMC формата : Без точки перехода
Параметр матрицы формата : Выборочная
Идентификатор кодека : XVID
Идентификатор кодека/Подсказка : XviD
Продолжительность : 52 м. 7 с.
Битрейт : 1 491 Кбит/сек
Ширина : 720 пикселей
Высота : 400 пикселей
Соотношение сторон : 16:9
Частота кадров : 25,000 кадров/сек
Цветовое пространство : YUV
Субдискретизация насыщенности : 4:2:0
Битовая глубина : 8 бит
Тип развёртки : Прогрессивная
Метод сжатия : С потерями
Бит/(Пиксели*Кадры) : 0.207
Размер потока : 556 Мбайт (88%)
Библиотека кодирования : XviD 73
Аудио
Идентификатор : 1
Формат : AC-3
Формат/Информация : Audio Coding 3
Коммерческое название : Dolby Digital
Идентификатор кодека : 2000
Продолжительность : 52 м. 7 с.
Вид битрейта : Постоянный
Битрейт : 192 Кбит/сек
Каналы : 2 канала
Channel layout : L R
Частота : 48,0 КГц
Частота кадров : 31,250 кадров/сек (1536 SPF)
Метод сжатия : С потерями
Размер потока : 71,6 Мбайт (11%)
Выравнивание : Разделение по промежуткам
Продолжительность промежутка : 40 мс. (1,00 видеокадр)
Время предзагрузки промежутка : 500 мс.
Service kind : Complete Main

Внимание! Раздача ведётся путём добавления новых серий

Раздача ведётся путём добавления новых серий, при каждом добавлении создаётся новый торрент. Чтобы начать докачку новой серии, пользователям необходимо сделать следующее:
- Остановить скачивание.
- Удалить старый торрент у себя из клиента (старые серии удалять не надо).
- Скачать новый торрент и запустить его у себя в клиенте вместо старого, при этом указать клиенту путь в старую папку куда и должно происходить скачивание новых серий.
Ваш клиент при этом должен произвести хеширование (проверку) старой папки (если не производит сам - помогите ему сделать это), и будет докачивать только те серии которых у вас ещё нет. Старые серии при этом не удаляются, а продолжают раздаваться!
Релиз от:
[Profile] [PM]

KGS

Gender: Male

Longevity: 5 years 5 months

Posts: 2

Location: Москва Московский

Post 14-May-2024 19:43 (after 5 months 1 day)

[Quote]

Поставте пожалуста тере между 1 и 9!
[Profile] [PM]
Display posts:    
Reply to topic

Current time is: 31-May 01:15

All times are UTC + 3



You cannot post new topics in this forum
You cannot reply to topics in this forum
You cannot edit your posts in this forum
You cannot delete your posts in this forum
You cannot vote in polls in this forum
You cannot attach files in this forum
You cannot download files in this forum