Условный мент / Охта [5 сезон: 1-44 серии из 50] (2023-2024) WEB-DLRip от Files-x

Reply to topic
 
Author Message

patriot67 ®

Gender: Male

Longevity: 4 years 7 months

Posts: 313

Post 16-Dec-2023 22:26

[Quote]

Условный мент / Охта Год выпуска: 2023-2024
Жанр: Детектив, приключения
Выпущено: Россия, Кинокомпания "Триикс Медиа"
Режиссер: Андрей Коршунов, Кристина Кутчер, Анатолий Семёнов (V)
В ролях: Денис Рожков, Анастасия Тюнина, Алексей Нилов, Сергей Кошонин, Алексей Фокин, Егор Бакулин, Кирилл Балобан, Ольга Богданова, Ольга Кирсанова-Миропольская, Любовь Макеева, Инесса Перелыгина-Владимирова, Алексей Байдаков, Евгений Карпов, Денис Зайцев, Никита Рогов, Виталий Бисеров, Данила Воропаев, Дарья Паутова, Алексей Алфеев, Антон Пулит, Ариэль Ласкер, Данила Иванов, Евгений Антонов, Олег Жилин, Антон Падерин, Никита Брусов, Андрей Родимов, Мария Капустинская, Алексей Романович, Андрей Бодренков, Михаил Скачков, Юлия Филиппова (II), Олег Попов (II), Дмитрий Зайцев (V), Филипп Чевычелов, Юрий Сташин, Илья Ивахнов, Юлия Скороход, Евгений Михайленко, Валентин Корнезо, Тимур Гилязов, Светлана Бакулина, Евгений Тымченко, Азат Алимбаев, Виолетта Балакирева, Александр Иванов (XVII), Игорь Бедных, Мария Грицюк, Мария Петрик, Егор Щедров, Александр Власенко (II), Софья Юрко, Георгий Медведев, Дмитрий Мазин, Елена Азарко, Олег Флеер, Виталий Татаринович, Сергей Евсеев, Вячеслав Воронцов, Роман Мамонтов, Антон Емельянов-Молчанов, Анастасия Даниелянц, Александра Сыдорук, Оксана Скакун, Роман Жилкин, Виктор Хозяинов, Николай Колосов, Роман Смирнов, Арсений Бедных, Григорий Бедных
О фильме: Дмитрий Рыжов, чей отец погиб при исполнении, решает продолжить его дело по борьбе с преступностью. Честный и принципиальный сотрудник угро многим пришёлся не по душе. За превышение полномочий Рыжова отправляют на скамью подсудимых. Полиция лишается отличного сотрудника, который отправляется отбывать двухлетний срок. И хотя на свободу Дмитрий выходит по УДО намного раньше, оперативником ему больше не быть. Путь в полицию Рыжову теперь заказан, да он и сам не желает связываться с уголовным розыском, а идёт работать в коммунальный сектор. Но и здесь покоя бывшему оперативнику ждать не приходится. Хозяин жилкомсервиса, в который устроился Рыжов, крутит «левые» дела в паре с капитаном Тельцовым, прикрывающим махинации. Участковый этого участка Арина Гордеева знает о происходящем, и мириться с мошенническими схемами и коррупцией в рядах полиции не собирается. Знакомство с бывшим оперативником Рыжовым приводит к появлению тандема, который встаёт на защиту законности. А через какое-то время Дмитрий начинает испытывать к новой знакомой романтические чувства.
Качество: WEB-DLRip
Видео: XviD, ~ 1500 Кбит/с, 720x400, 25 кадр/с
Аудио: AC3, 2 ch, 192 Кбит/с
Продолжительность: 44 х ~ 00:42:44
Перевод: Не требуется
Cубтитры: Нет

Скриншоты


MediaInfo

Общее
Полное имя : D:\Условный мент.S05.2023.WEB-DLRip.Files-x\01. Условный мент.S05.2023.WEB-DLRip.Files-x.avi
Формат : AVI
Формат/Информация : Audio Video Interleave
Настройки формата : BitmapInfoHeader / WaveFormatEx
Размер файла : 518 Мбайт
Продолжительность : 42 м. 44 с.
Общий поток : 1 695 Кбит/сек
Частота кадров : 25,000 кадров/сек
Программа кодирования : VirtualDubMod 1.5.10.3 | www.virtualdub-fr.org || (build 2550/release)
Библиотека кодирования : VirtualDubMod build 2550/release
Видео
Идентификатор : 0
Формат : MPEG-4 Visual
Профиль формата : Advanced Simple@L5
Настройки формата : BVOP1 / Custom Matrix
Параметр BVOP формата : 1
Параметр QPel формата : Нет
Параметр GMC формата : Без точки перехода
Параметр матрицы формата : Выборочная
Идентификатор кодека : XVID
Идентификатор кодека/Подсказка : XviD
Продолжительность : 42 м. 44 с.
Битрейт : 1 493 Кбит/сек
Ширина : 720 пикселей
Высота : 400 пикселей
Соотношение сторон : 16:9
Частота кадров : 25,000 кадров/сек
Цветовое пространство : YUV
Субдискретизация насыщенности : 4:2:0
Битовая глубина : 8 бит
Тип развёртки : Прогрессивная
Метод сжатия : С потерями
Бит/(Пиксели*Кадры) : 0.207
Размер потока : 456 Мбайт (88%)
Библиотека кодирования : XviD 73
Аудио
Идентификатор : 1
Формат : AC-3
Формат/Информация : Audio Coding 3
Коммерческое название : Dolby Digital
Идентификатор кодека : 2000
Продолжительность : 42 м. 44 с.
Вид битрейта : Постоянный
Битрейт : 192 Кбит/сек
Каналы : 2 канала
Channel layout : L R
Частота : 48,0 КГц
Частота кадров : 31,250 кадров/сек (1536 SPF)
Метод сжатия : С потерями
Размер потока : 58,7 Мбайт (11%)
Выравнивание : Разделение по промежуткам
Продолжительность промежутка : 40 мс. (1,00 видеокадр)
Время предзагрузки промежутка : 500 мс.
Service kind : Complete Main

Внимание! Раздача ведётся путём добавления новых серий

Раздача ведётся путём добавления новых серий, при каждом добавлении создаётся новый торрент. Чтобы начать докачку новой серии, пользователям необходимо сделать следующее:
- Остановить скачивание.
- Удалить старый торрент у себя из клиента (старые серии удалять не надо).
- Скачать новый торрент и запустить его у себя в клиенте вместо старого, при этом указать клиенту путь в старую папку куда и должно происходить скачивание новых серий.
Ваш клиент при этом должен произвести хеширование (проверку) старой папки (если не производит сам - помогите ему сделать это), и будет докачивать только те серии которых у вас ещё нет. Старые серии при этом не удаляются, а продолжают раздаваться!
Релиз от:

Release was prepared by RG Files-x

[Profile] [PM]

patriot67 ®

Gender: Male

Longevity: 4 years 7 months

Posts: 313

Post 03-Jan-2024 19:38 (after 17 days)

[Quote]

Замена 16 серии
[Profile] [PM]
Display posts:    
Reply to topic

Current time is: 24-Jun 23:58

All times are UTC + 3



You cannot post new topics in this forum
You cannot reply to topics in this forum
You cannot edit your posts in this forum
You cannot delete your posts in this forum
You cannot vote in polls in this forum
You cannot attach files in this forum
You cannot download files in this forum