Дворец / The Palace (2023) WEB-DLRip 720p

Reply to topic
 
Author Message

Pipetka ®

Gender: Male

Longevity: 5 years 3 months

Posts: 48

Post 11-Jan-2024 10:57

[Quote]

Дворец / The Palace Год выпуска: 2023
Жанр: Комедия
Выпущено: Италия, Швейцария, Польша, Франция, CAB Productions, Eliseo Cinema, Lucky Bob, Rai Cinema
Режиссер: Роман Полански
В ролях: Оливер Мазуччи, Микки Рурк, Фанни Ардан, Джон Клиз, Милан Пешель, Александр Петров, Жоакин де Алмейда, Фортунато Серлино, Бронвин Джеймс, Дэнни Экснар
О фильме: 31 декабря 1999 года. Роскошный отель в Швейцарии и его гости-миллионеры готовятся к самому долгожданному Новому году. Впереди ночь, полная самых разных причуд, пороков и странностей богатых и знаменитых.

Качество: WEB-DLRip 720p
Видео: 1280x690, 24.000 fps, H.264, ~2842 kbps
Аудио: 48 kHz, AC3, 6 ch, ~448 kbps
Продолжительность: 01:38:17
Перевод: Дублированный | СиПиАй Филмз / CPI Films
Cубтитры: Русские (Full)

Скриншоты


MediaInfo

General
Unique ID : 191058932380387982925108640688212720653 (0x8FBC9CA59208D35DE0214FF0EE26BC0D)
Complete name : O:The.Palace.2023.WEB-DLRip.720p.x264.seleZen.mkv
Format : Matroska
Format version : Version 4
File size : 2.26 GiB
Duration : 1 h 38 min
Overall bit rate : 3 293 kb/s
Frame rate : 24.000 FPS
Movie name : The.Palace.2023.WEB-DLRip.720p.x264.seleZen
Encoded date : 2024-01-10 19:41:35 UTC
Writing application : mkvmerge v82.0 ('I'm The President') 64-bit
Writing library : libebml v1.4.5 + libmatroska v1.7.1
Cover : Yes
Attachments : cover.jpg / small_cover.jpg
Video
ID : 1
Format : AVC
Format/Info : Advanced Video Codec
Format profile : High@L4.1
Format settings : CABAC / 5 Ref Frames
Format settings, CABAC : Yes
Format settings, Reference : 5 frames
Codec ID : V_MPEG4/ISO/AVC
Duration : 1 h 38 min
Bit rate : 2 842 kb/s
Width : 1 280 pixels
Height : 690 pixels
Display aspect ratio : 1.85:1
Frame rate mode : Constant
Frame rate : 24.000 FPS
Color space : YUV
Chroma subsampling : 4:2:0
Bit depth : 8 bits
Scan type : Progressive
Bits/(Pixel*Frame) : 0.134
Stream size : 1.95 GiB (86%)
Title : -=DoMiNo=-
Writing library : x264 core 164 r3172 -DoMiNo
Encoding settings : cabac=1 / ref=5 / deblock=1:0:0 / analyse=0x3:0x133 / me=umh / subme=10 / psy=1 / psy_rd=1.00:0.00 / mixed_ref=1 / me_range=32 / chroma_me=1 / trellis=2 / 8x8dct=1 / cqm=0 / deadzone=21,11 / fast_pskip=0 / chroma_qp_offset=-2 / threads=22 / lookahead_threads=5 / sliced_threads=0 / nr=0 / decimate=1 / interlaced=0 / bluray_compat=0 / constrained_intra=0 / bframes=10 / b_pyramid=2 / b_adapt=2 / b_bias=0 / direct=3 / weightb=1 / open_gop=0 / weightp=2 / keyint=250 / keyint_min=24 / scenecut=40 / intra_refresh=0 / rc_lookahead=60 / rc=crf / mbtree=0 / crf=20.5 / qcomp=0.60 / qpmin=0 / qpmax=69 / qpstep=4 / vbv_maxrate=50000 / vbv_bufsize=62500 / crf_max=0.0 / nal_hrd=none / filler=0 / ip_ratio=1.40 / pb_ratio=1.30 / aq=1:0.90
Language : English
Default : Yes
Forced : No
Color range : Limited
Color primaries : BT.709
Transfer characteristics : BT.709
Matrix coefficients : BT.709
Audio
ID : 2
Format : AC-3
Format/Info : Audio Coding 3
Commercial name : Dolby Digital
Codec ID : A_AC3
Duration : 1 h 38 min
Bit rate mode : Constant
Bit rate : 448 kb/s
Channel(s) : 6 channels
Channel layout : L R C LFE Ls Rs
Sampling rate : 48.0 kHz
Frame rate : 31.250 FPS (1536 SPF)
Compression mode : Lossy
Stream size : 315 MiB (14%)
Title : Dub (CPI Films)
Language : Russian
Service kind : Complete Main
Default : Yes
Forced : No
Text
ID : 3
Format : UTF-8
Codec ID : S_TEXT/UTF8
Codec ID/Info : UTF-8 Plain Text
Duration : 1 h 34 min
Bit rate : 94 b/s
Frame rate : 0.282 FPS
Count of elements : 1593
Stream size : 65.0 KiB (0%)
Title : Full [AI]
Language : Russian
Default : No
Forced : No
Menu
00:00:00.000 : en:Глава 01
00:05:50.000 : en:Глава 02
00:11:40.000 : en:Глава 03
00:17:30.000 : en:Глава 04
00:23:20.000 : en:Глава 05
00:29:10.000 : en:Глава 06
00:35:00.000 : en:Глава 07
00:40:50.000 : en:Глава 08
00:46:40.000 : en:Глава 09
00:52:30.000 : en:Глава 10
00:58:20.000 : en:Глава 11
01:04:10.000 : en:Глава 12
01:10:00.000 : en:Глава 13
01:15:50.000 : en:Глава 14
01:21:40.000 : en:Глава 15
01:27:30.000 : en:Глава 16
01:33:20.000 : en:Глава 17
Релиз от:
[Profile] [PM]
Display posts:    
Reply to topic

Current time is: 04-Mar 05:37

All times are UTC + 3



You cannot post new topics in this forum
You cannot reply to topics in this forum
You cannot edit your posts in this forum
You cannot delete your posts in this forum
You cannot vote in polls in this forum
You cannot attach files in this forum
You cannot download files in this forum