Выжить в Самарканде [1-8 выпуск из 8] (2024) WEBRip 720p от Files-x

Reply to topic
 
Author Message

bond74 ®

Gender: Male

Longevity: 5 years 3 months

Posts: 2273

Post 15-Jan-2024 14:31

[Quote]

Выжить в Самарканде Оригинальное название: Выжить в Самарканде
Год выпуска: 2024
Жанр: ТВ-шоу, развлекательный
Выпущено: Россия, ТНТ
Ведущий: Павел Воля, Ляйсан Утяшева
Описание: «Выжить в Самарканде» – это продолжение масштабного шоу Выжить в Дубае, в котором две команды – звёздная и народная – столкнутся с двумя противоположными мирами Самарканда. С одной стороны, их будет ждать атмосфера прекрасной восточной сказки комплекса Silk Road Samarkand с роскошными отелями, бирюзовыми куполами, дворцами Вечного города и минаретами до небес. С другой – горный лагерь со спартанскими условиями, без воды, еды и нормальной постели. Какая из команд столкнётся с роскошью, а какая – с горными хребтами - покажут испытания. Выживать в Самарканде участники будут ради главного приза в 10 миллионов рублей. Ведущие реалити-шоу «Выжить в Самарканде» – Ляйсан Утяшева и Павел Воля. Самая яркая пара телеканала ТНТ и самая любимая пара россиян снова будет работать в тандеме.
Качество: WEBRip 720p
Видео: MPEG-4 AVC, ~ 1942 Кбит/с, 1280x544
Аудио: AC3, 2 ch, 192 Кбит/с
Продолжительность: 1 х ~ 01:40:00
Язык: Русский

Скриншоты


MediaInfo

Общее
Уникальный идентификатор : 226977559200278771659724755749743416327 (0xAAC249AD0CA5B25C8B649E56ECACD407)
Полное имя : C:\ШОУ\Выжить в Самарканде.2024.WEB-DL 720p.Files-x\01. Выжить в Самарканде.2024.WEB-DL 720p.Files-x.mkv
Формат : Matroska
Версия формата : Version 4
Размер файла : 1,50 Гбайт
Продолжительность : 1 ч. 40 м.
Режим общего битрейта : Переменный
Общий поток : 2 136 Кбит/сек
Частота кадров : 25,000 кадров/сек
Дата кодирования : 2024-01-14 18:07:12 UTC
Программа кодирования : mkvmerge v7.8.0 ('River Man') 32bit built on Apr 3 2015 12:11:22
Библиотека кодирования : libebml v1.3.1 + libmatroska v1.4.2
Видео
Идентификатор : 1
Формат : AVC
Формат/Информация : Advanced Video Codec
Профиль формата : High@L4.1
Настройки формата : CABAC / 4 Ref Frames
Параметр CABAC формата : Да
Параметр RefFrames формата : 4 кадра
Параметр GOP формата : M=4, N=50
Идентификатор кодека : V_MPEG4/ISO/AVC
Продолжительность : 1 ч. 40 м.
Вид битрейта : Переменный
Битрейт : 1 942 Кбит/сек
Максимальный битрейт : 5 000 Кбит/сек
Ширина : 1 280 пикселей
Высота : 544 пикселя
Соотношение сторон : 2,35:1
Соотношение сторон в оригинале : 2,35:1
Режим частоты кадров : Постоянный
Частота кадров : 25,000 кадров/сек
Цветовое пространство : YUV
Субдискретизация насыщенности : 4:2:0
Битовая глубина : 8 бит
Тип развёртки : Прогрессивная
Бит/(Пиксели*Кадры) : 0.112
Размер потока : 1,37 Гбайт (91%)
Default : Да
Forced : Нет
Цветовой диапазон : Limited
Основные цвета : BT.709
Характеристики трансфера : BT.709
Аудио
Идентификатор : 2
Формат : AC-3
Формат/Информация : Audio Coding 3
Коммерческое название : Dolby Digital
Идентификатор кодека : A_AC3
Продолжительность : 1 ч. 40 м.
Вид битрейта : Постоянный
Битрейт : 192 Кбит/сек
Каналы : 2 канала
Channel layout : L R
Частота : 44,1 КГц
Частота кадров : 28,711 кадров/сек (1536 SPF)
Метод сжатия : С потерями
Задержка видео : -120 мс.
Размер потока : 139 Мбайт (9%)
Service kind : Complete Main
Default : Да
Forced : Нет

Внимание! Раздача ведётся путём добавления новых серий

Раздача ведётся путём добавления новых серий, при каждом добавлении создаётся новый торрент. Чтобы начать докачку новой серии, пользователям необходимо сделать следующее:
- Остановить скачивание.
- Удалить старый торрент у себя из клиента (старые серии удалять не надо).
- Скачать новый торрент и запустить его у себя в клиенте вместо старого, при этом указать клиенту путь в старую папку куда и должно происходить скачивание новых серий.
Ваш клиент при этом должен произвести хеширование (проверку) старой папки (если не производит сам - помогите ему сделать это), и будет докачивать только те серии которых у вас ещё нет. Старые серии при этом не удаляются, а продолжают раздаваться!
Релиз от:

Release was prepared by RG Files-x

Related releases "Выжить в Самарканде" (1):
Added Topic title Size
27 Feb 24  Выжить в Самарканде [1-7 выпуск] (2024) WEBRip от Files-x 8.65 GB
Find all related releases Выжить в Самарканде
[Profile] [PM]
Display posts:    
Reply to topic

Current time is: 04-Mar 04:19

All times are UTC + 3



You cannot post new topics in this forum
You cannot reply to topics in this forum
You cannot edit your posts in this forum
You cannot delete your posts in this forum
You cannot vote in polls in this forum
You cannot attach files in this forum
You cannot download files in this forum