Выжить в Самарканде [1-7 выпуск] (2024) WEBRip от Files-x

Reply to topic
 
Author Message

bond74 ®

Gender: Male

Longevity: 5 years 3 months

Posts: 2273

Post 15-Jan-2024 14:27

[Quote]

Выжить в Самарканде Оригинальное название: Выжить в Самарканде
Год выпуска: 2024
Жанр: ТВ-шоу, развлекательный
Выпущено: Россия, ТНТ
Ведущий: Павел Воля, Ляйсан Утяшева
Описание: «Выжить в Самарканде» – это продолжение масштабного шоу Выжить в Дубае, в котором две команды – звёздная и народная – столкнутся с двумя противоположными мирами Самарканда. С одной стороны, их будет ждать атмосфера прекрасной восточной сказки комплекса Silk Road Samarkand с роскошными отелями, бирюзовыми куполами, дворцами Вечного города и минаретами до небес. С другой – горный лагерь со спартанскими условиями, без воды, еды и нормальной постели. Какая из команд столкнётся с роскошью, а какая – с горными хребтами - покажут испытания. Выживать в Самарканде участники будут ради главного приза в 10 миллионов рублей. Ведущие реалити-шоу «Выжить в Самарканде» – Ляйсан Утяшева и Павел Воля. Самая яркая пара телеканала ТНТ и самая любимая пара россиян снова будет работать в тандеме.
Качество: WEBRip
Видео:XviD, ~ 1600 Кбит/с, 720x304
Аудио: AC3, 2 ch, 192 Кбит/с
Продолжительность: 1 х ~ 01:40:00
Перевод: Не требуется
Субтитры: Нет

Скриншоты



MediaInfo

Общее
Полное имя : C:\films\Шоу Воли.2023.WEB-DLRip.Files-x\01. Шоу Воли.2023.WEB-DLRip.Files-x..avi
Формат : AVI
Формат/Информация : Audio Video Interleave
Размер файла : 772 Мбайт
Продолжительность : 1 ч. 0 м.
Общий поток : 1 797 Кбит/сек
Программа кодирования : VirtualDubMod 1.5.10.3 | www.virtualdub-fr.org || (build 2550/release)
Библиотека кодирования : VirtualDubMod build 2550/release
Видео
Идентификатор : 0
Формат : MPEG-4 Visual
Профиль формата : Advanced Simple@L5
Настройки формата : BVOP1 / Custom Matrix
Параметр BVOP формата : 1
Параметр QPel формата : Нет
Параметр GMC формата : Без точки перехода
Параметр матрицы формата : Выборочная
Идентификатор кодека : XVID
Идентификатор кодека/Подсказка : XviD
Продолжительность : 1 ч. 0 м.
Битрейт : 1 595 Кбит/сек
Ширина : 720 пикселей
Высота : 400 пикселей
Соотношение сторон : 16:9
Частота кадров : 25,000 кадров/сек
Цветовое пространство : YUV
Субдискретизация насыщенности : 4:2:0
Битовая глубина : 8 бит
Тип развёртки : Прогрессивная
Метод сжатия : С потерями
Бит/(Пиксели*Кадры) : 0.222
Размер потока : 685 Мбайт (89%)
Библиотека кодирования : XviD 73
Аудио
Идентификатор : 1
Формат : AC-3
Формат/Информация : Audio Coding 3
Коммерческое название : Dolby Digital
Идентификатор кодека : 2000
Продолжительность : 1 ч. 0 м.
Вид битрейта : Постоянный
Битрейт : 192 Кбит/сек
Каналы : 2 канала
Channel layout : L R
Частота : 48,0 КГц
Частота кадров : 31,250 кадров/сек (1536 SPF)
Метод сжатия : С потерями
Размер потока : 82,4 Мбайт (11%)
Выравнивание : Разделение по промежуткам
Продолжительность промежутка : 40 мс. (1,00 видеокадр)
Время предзагрузки промежутка : 500 мс.
Service kind : Complete Main

Внимание! Раздача ведётся путём добавления новых серий

Раздача ведётся путём добавления новых серий, при каждом добавлении создаётся новый торрент. Чтобы начать докачку новой серии, пользователям необходимо сделать следующее:
- Остановить скачивание.
- Удалить старый торрент у себя из клиента (старые серии удалять не надо).
- Скачать новый торрент и запустить его у себя в клиенте вместо старого, при этом указать клиенту путь в старую папку куда и должно происходить скачивание новых серий.
Ваш клиент при этом должен произвести хеширование (проверку) старой папки (если не производит сам - помогите ему сделать это), и будет докачивать только те серии которых у вас ещё нет. Старые серии при этом не удаляются, а продолжают раздаваться!
Релиз от:

Release was prepared by RG Files-x

Related releases "Выжить в Самарканде" (1):
Added Topic title Size
3 Mar 24  Выжить в Самарканде [1-8 выпуск из 8] (2024) WEBRip 720p от Files-x 11.43 GB
Find all related releases Выжить в Самарканде
[Profile] [PM]
Display posts:    
Reply to topic

Current time is: 04-Mar 04:19

All times are UTC + 3



You cannot post new topics in this forum
You cannot reply to topics in this forum
You cannot edit your posts in this forum
You cannot delete your posts in this forum
You cannot vote in polls in this forum
You cannot attach files in this forum
You cannot download files in this forum