На гребне волны / Point Break (1991) BDRip 1080p | Remastered

Reply to topic
 
Author Message

Pipetka ®

Gender: Male

Longevity: 5 years 5 months

Posts: 48

Post 16-Feb-2024 07:53

[Quote]

На гребне волны / Point Break
Год выпуска: 1991
Жанр: Боевик, триллер, криминал
Выпущено: Япония, США, JVC Entertainment, Largo Entertainment, Amalgamated Dynamics, Fantasy II Film Effects, Video Image
Режиссёр: Кэтрин Бигелоу
В ролях: Патрик Суэйзи, Киану Ривз, Гэри Бьюзи, Лори Петти, Джон К. МакГинли, Джеймс ЛеГрос, Джон Филбин, Боджесси Кристофер, Джулиан Рейес, Дэниэл Бир
О фильме: Таинственная банда серфингистов среди белого дня совершает ограбления банков. Полиция и ФБР поражены профессиональностью и скоростью проведения преступлений.
Следствие ведет молодой и претенциозный агент ФБР, который, рискуя жизнью, внедряется в банду и раскрывает это дело, но неожиданно для самого себя он осознает, что вернуться к нормальной жизни он уже не сможет.

Качество: BDRip 1080p
Видео: MPEG-4 AVC, 1920х804, ~18000 Кбит/с, 23.976 fps
Аудио 1: Русский: АС3, 6 ch, 448 Кбит/с | Д. Пучков (Гоблин)
Аудио 2: Русский: АС3, 6 ch, 640 Кбит/с | А. Гаврилов
Аудио 3: Русский: AC3, 2 ch, 192 Кбит/с | Профессиональный (многоголосый) РТР
Аудио 4: Русский: AC3, 2 ch, 192 Кбит/с | Профессиональный (многоголосый) ОРТ
Аудио 5: Русский: AC3, 2 ch, 192 Кбит/с | Профессиональный (многоголосый) TB3 (iTunes)
Аудио 6: Английский: АС3, 6 ch, 640 Кбит/с
Продолжительность: 02:01:57
Перевод: Профессиональный (многоголосый), авторский
Субтитры: Русские, английские

Скриншоты


MediaInfo

Общее
Уникальный идентификатор : 219469236999917263548867020274969656817 (0xA51C3CCF7C992AF895619206C410BDF1)
Полное имя : D:\Кино\На гребне волны.1991.1080p.mkv
Формат : Matroska
Версия формата : Version 2
Размер файла : 17,3 Гбайт
Продолжительность : 2 ч. 1 м.
Общий поток : 20,3 Мбит/сек
Частота кадров : 23,976 кадра/сек
Дата кодирования : 2024-02-10 21:48:42 UTC
Программа кодирования : mkvmerge v5.8.0 ('No Sleep / Pillow') built on Sep 2 2012 15:37:04
Библиотека кодирования : libebml v1.2.3 + libmatroska v1.3.0
Видео
Идентификатор : 1
Формат : AVC
Формат/Информация : Advanced Video Codec
Профиль формата : High@L4.1
Настройки формата : CABAC / 5 Ref Frames
Параметр CABAC формата : Да
Параметр RefFrames формата : 5 кадров
Идентификатор кодека : V_MPEG4/ISO/AVC
Продолжительность : 2 ч. 1 м.
Битрейт : 18,0 Мбит/сек
Ширина : 1 920 пикселей
Высота : 804 пикселя
Соотношение сторон : 2,40:1
Режим частоты кадров : Постоянный
Частота кадров : 23,976 (24000/1001) кадра/сек
Цветовое пространство : YUV
Субдискретизация насыщенности : 4:2:0
Битовая глубина : 8 бит
Тип развёртки : Прогрессивная
Бит/(Пиксели*Кадры) : 0.486
Размер потока : 15,0 Гбайт (87%)
Библиотека кодирования : x264 core 164 r3106+55M 24adf88 t_mod_New [(8 & 10)-bit@all X86_64]
Настройки программы : cabac=1 / ref=5 / deblock=1:-2:-2 / analyse=0x3:0x113 / me=umh / subme=11 / psy=1 / fade_compensate=0.00 / psy_rd=0.92:0.00 / mixed_ref=1 / me_range=48 / chroma_me=1 / trellis=2 / 8x8dct=1 / cqm=0 / deadzone=21,11 / fast_pskip=0 / chroma_qp_offset=-2 / threads=12 / lookahead_threads=3 / sliced_threads=0 / nr=0 / decimate=0 / interlaced=0 / bluray_compat=0 / constrained_intra=0 / fgo=0 / bframes=10 / b_pyramid=2 / b_adapt=2 / b_bias=0 / direct=3 / weightb=1 / open_gop=0 / weightp=2 / keyint=240 / keyint_min=23 / scenecut=40 / intra_refresh=0 / rc_lookahead=40 / rc=2pass / mbtree=0 / bitrate=18000 / ratetol=1.0 / qcomp=0.60 / qpmin=0:0:0 / qpmax=39:39:39 / qpstep=4 / cplxblur=20.0 / qblur=0.5 / vbv_maxrate=50000 / vbv_bufsize=62500 / nal_hrd=none / filler=0 / ip_ratio=1.25 / pb_ratio=1.30 / aq=2:0.70 / aq-sensitivity=10.00 / aq-factor=1.00:1.00:1.00 / aq2=0 / aq3=0
Язык : English
Default : Да
Forced : Нет
Цветовой диапазон : Limited
Основные цвета : BT.709
Характеристики трансфера : BT.709
Коэффициенты матрицы : BT.709
Аудио #1
Идентификатор : 2
Формат : AC-3
Формат/Информация : Audio Coding 3
Коммерческое название : Dolby Digital
Идентификатор кодека : A_AC3
Продолжительность : 2 ч. 1 м.
Вид битрейта : Постоянный
Битрейт : 448 Кбит/сек
Каналы : 6 каналов
Channel layout : L R C LFE Ls Rs
Частота : 48,0 КГц
Частота кадров : 31,250 кадров/сек (1536 SPF)
Метод сжатия : С потерями
Размер потока : 391 Мбайт (2%)
Заголовок : AVO, Д. Пучков (Гоблин)
Язык : Russian
Service kind : Complete Main
Default : Да
Forced : Нет
Аудио #2
Идентификатор : 3
Формат : AC-3
Формат/Информация : Audio Coding 3
Коммерческое название : Dolby Digital
Идентификатор кодека : A_AC3
Продолжительность : 2 ч. 1 м.
Вид битрейта : Постоянный
Битрейт : 640 Кбит/сек
Каналы : 6 каналов
Channel layout : L R C LFE Ls Rs
Частота : 48,0 КГц
Частота кадров : 31,250 кадров/сек (1536 SPF)
Метод сжатия : С потерями
Размер потока : 558 Мбайт (3%)
Заголовок : AVO, А. Гаврилов
Язык : Russian
Service kind : Complete Main
Default : Нет
Forced : Нет
Аудио #3
Идентификатор : 4
Формат : AC-3
Формат/Информация : Audio Coding 3
Коммерческое название : Dolby Digital
Идентификатор кодека : A_AC3
Продолжительность : 2 ч. 1 м.
Вид битрейта : Постоянный
Битрейт : 192 Кбит/сек
Каналы : 2 канала
Channel layout : L R
Частота : 48,0 КГц
Частота кадров : 31,250 кадров/сек (1536 SPF)
Метод сжатия : С потерями
Размер потока : 167 Мбайт (1%)
Заголовок : MVO, РТР
Язык : Russian
Service kind : Complete Main
Default : Нет
Forced : Нет
Аудио #4
Идентификатор : 5
Формат : AC-3
Формат/Информация : Audio Coding 3
Коммерческое название : Dolby Digital
Идентификатор кодека : A_AC3
Продолжительность : 2 ч. 1 м.
Вид битрейта : Постоянный
Битрейт : 192 Кбит/сек
Каналы : 2 канала
Channel layout : L R
Частота : 48,0 КГц
Частота кадров : 31,250 кадров/сек (1536 SPF)
Метод сжатия : С потерями
Размер потока : 167 Мбайт (1%)
Заголовок : MVO, ОРТ
Язык : Russian
Service kind : Complete Main
Default : Нет
Forced : Нет
Аудио #5
Идентификатор : 6
Формат : AC-3
Формат/Информация : Audio Coding 3
Коммерческое название : Dolby Digital
Идентификатор кодека : A_AC3
Продолжительность : 2 ч. 1 м.
Вид битрейта : Постоянный
Битрейт : 192 Кбит/сек
Каналы : 2 канала
Channel layout : L R
Частота : 48,0 КГц
Частота кадров : 31,250 кадров/сек (1536 SPF)
Метод сжатия : С потерями
Размер потока : 167 Мбайт (1%)
Заголовок : MVO, TB3 (iTunes)
Язык : Russian
Service kind : Complete Main
Default : Нет
Forced : Нет
Аудио #6
Идентификатор : 7
Формат : AC-3
Формат/Информация : Audio Coding 3
Коммерческое название : Dolby Digital
Идентификатор кодека : A_AC3
Продолжительность : 2 ч. 1 м.
Вид битрейта : Постоянный
Битрейт : 640 Кбит/сек
Каналы : 6 каналов
Channel layout : L R C LFE Ls Rs
Частота : 48,0 КГц
Частота кадров : 31,250 кадров/сек (1536 SPF)
Метод сжатия : С потерями
Размер потока : 558 Мбайт (3%)
Язык : English
Service kind : Complete Main
Default : Нет
Forced : Нет
Текст #1
Идентификатор : 8
Формат : UTF-8
Идентификатор кодека : S_TEXT/UTF8
Идентификатор кодека/Информация : UTF-8 Plain Text
Язык : Russian
Default : Нет
Forced : Нет
Текст #2
Идентификатор : 9
Формат : UTF-8
Идентификатор кодека : S_TEXT/UTF8
Идентификатор кодека/Информация : UTF-8 Plain Text
Заголовок : Netflix
Язык : English
Default : Нет
Forced : Нет
Текст #3
Идентификатор : 10
Формат : UTF-8
Идентификатор кодека : S_TEXT/UTF8
Идентификатор кодека/Информация : UTF-8 Plain Text
Заголовок : SDH / Netflix
Язык : English
Default : Нет
Forced : Нет
Меню
00:00:00.000 : en:Main Titles
00:03:08.229 : en:First Day in L.A.
00:06:18.002 : en:The Ex-Presidents
00:09:38.536 : en:Theory
00:13:24.970 : en:First Time on the Board
00:16:43.669 : en:Tyler Endicott
00:20:58.882 : en:Surfing Lessons
00:24:04.609 : en:Acceptance
00:27:34.694 : en:Hair Samples
00:31:05.488 : en:Latigo Beach
00:39:00.004 : en:The Party
00:43:33.652 : en:Indescribable Feelings
00:49:31.927 : en:The Raid
00:58:35.261 : en:A Feeling
01:02:16.607 : en:Can't Take the Shot
01:10:29.600 : en:Truth
01:16:41.305 : en:Skydiving
01:23:43.560 : en:Blackmail
01:27:15.730 : en:Ninety Seconds
01:34:51.352 : en:Pappas Dies
01:41:14.318 : en:Rescuing Tyler
01:50:12.897 : en:Bells Beach
01:55:20.872 : en:This Moment
01:58:41.823 : en:End Titles
[Profile] [PM]
Display posts:    
Reply to topic

Current time is: 20-Apr 16:58

All times are UTC + 3



You cannot post new topics in this forum
You cannot reply to topics in this forum
You cannot edit your posts in this forum
You cannot delete your posts in this forum
You cannot vote in polls in this forum
You cannot attach files in this forum
You cannot download files in this forum