Выжившие: БЛОГГГЕР [1 сезон: 1-7 серии из 7] (2021) WEB-DLRip-AVC от Files-x

Reply to topic
 
Author Message

Серый1779 ®

Gender: Male

Longevity: 5 years 5 months

Posts: 3511

Location: Украина

Post 02-Mar-2024 02:39

[Quote]

Выжившие: БЛОГГГЕР Год выпуска: 2021
Жанр: Фантастика, триллер, драма
Выпущено: Россия, Кинокомпания "Okko Studios"
Режиссер: Павел Тимофеев
В ролях: Георгий Кудренко, Артур Мухамадияров, Филипп Авдеев, Богдан Голощук, Алексей Алексеев (II), Александра Ревенко, Александр Лырчиков, Николай Самсонов, Матвей Осокин, Алексей Овсянников
О фильме: Постапокалипсис заставляет людей совершать самые разные поступки: уходить в леса, заниматься мародёрством, грабежами и убийствами. Парень Гоша не ушёл в лес и не переехал в бабушкин дом в деревне, он нашёл в сельской местности вдали от посторонних глаз церковь, которую переоборудовал практически в умный дом. Теперь Гошу кормят сразу несколько специально разработанных им гаджетов. А ещё, чтобы не скучать в одиночестве, парень завёл видеоблог, в котором рассказывает обо всех своих весёлых приключениях.
Качество: WEB-DLRip-AVC
Видео: MPEG-4 AVC, ~ 1600 Кбит/с, 1024x576, 25 кадр/с
Аудио: AC3, 6 ch, 448 Кбит/с
Продолжительность: 7 х ~ 00:07:38
Перевод: Не требуется
Cубтитры: Нет

Скриншоты



MediaInfo

General
Unique ID : 228817862299124047822478435940065390871 (0xAC24B79FBE8FC46DA50CA54DADD8B117)
Complete name : F:\Выжившие. БЛОГГГЕР.S01.(2021).WEB-DLRip.(AVC).Files-x\01.Выжившие. БЛОГГГЕР.S01.(2021).WEB-DLRip.(AVC).by.Серый1779.Files-x.mkv
Format : Matroska
Format version : Version 2
File size : 112 MiB
Duration : 7 min 38 s
Overall bit rate : 2 051 kb/s
Encoded date : UTC 2024-02-29 22:23:37
Writing application : mkvmerge v7.8.0 ('River Man') 32bit built on Apr 3 2015 12:11:22
Writing library : libebml v1.3.1 + libmatroska v1.4.2
Video
ID : 1
Format : AVC
Format/Info : Advanced Video Codec
Format profile : High@L4.1
Format settings : CABAC / 9 Ref Frames
Format settings, CABAC : Yes
Format settings, RefFrames : 9 frames
Codec ID : V_MPEG4/ISO/AVC
Duration : 7 min 38 s
Bit rate : 1 600 kb/s
Width : 1 024 pixels
Height : 576 pixels
Display aspect ratio : 16:9
Frame rate mode : Constant
Frame rate : 25.000 FPS
Color space : YUV
Chroma subsampling : 4:2:0
Bit depth : 8 bits
Scan type : Progressive
Bits/(Pixel*Frame) : 0.109
Stream size : 85.4 MiB (76%)
Writing library : x264 core 146 r2538 121396c
Encoding settings : cabac=1 / ref=9 / deblock=1:-2:-1 / analyse=0x3:0x133 / me=umh / subme=9 / psy=1 / psy_rd=1.00:0.15 / mixed_ref=1 / me_range=32 / chroma_me=1 / trellis=2 / 8x8dct=1 / cqm=0 / deadzone=21,11 / fast_pskip=0 / chroma_qp_offset=-3 / threads=18 / lookahead_threads=3 / sliced_threads=0 / nr=0 / decimate=1 / interlaced=0 / bluray_compat=0 / constrained_intra=0 / bframes=9 / b_pyramid=2 / b_adapt=2 / b_bias=0 / direct=1 / weightb=1 / open_gop=0 / weightp=2 / keyint=250 / keyint_min=25 / scenecut=40 / intra_refresh=0 / rc=2pass / mbtree=0 / bitrate=1600 / ratetol=1.0 / qcomp=0.60 / qpmin=0 / qpmax=69 / qpstep=4 / cplxblur=20.0 / qblur=0.5 / ip_ratio=1.40 / pb_ratio=1.30 / aq=2:1.00
Default : Yes
Forced : No
Color range : Limited
Color primaries : BT.709
Transfer characteristics : BT.709
Matrix coefficients : BT.709
Audio
ID : 2
Format : AC-3
Format/Info : Audio Coding 3
Format settings, Endianness : Big
Codec ID : A_AC3
Duration : 7 min 38 s
Bit rate mode : Constant
Bit rate : 448 kb/s
Channel(s) : 6 channels
Channel positions : Front: L C R, Side: L R, LFE
Sampling rate : 48.0 kHz
Frame rate : 31.250 FPS (1536 SPF)
Bit depth : 16 bits
Compression mode : Lossy
Stream size : 24.5 MiB (22%)
Service kind : Complete Main
Default : Yes
Forced : No

Внимание! Смотрим спин-оффы в такой последовательности!

01.Выжившие 1 сезон 2021 год
02.Выжившие. Пробуждение 2 сезон 2024 год
спин-офф:
03.Выжившие. 3200 км
04.Выжившие. Благие намерения
05.Выжившие. БЛОГГГЕР
06.Выжившие. Огни
07.Выжившие. Подростки
08.Выжившие. Сено
09.Выжившие. Яна
10.Выжившие. Иона
11.Выжившие. Смертельный номер
12.Выжившие. Беременная
13.Выжившие. Круги
14.Выжившие. Дед
15.Выжившие. Патруль
16.Выжившие. Допрос

Раздача ведётся путём добавления новых серий

Внимание! Раздача ведётся путём добавления новых серий; при каждом добавлении создаётся новый торрент.
Чтобы начать докачку новой серии, пользователям необходимо сделать следующее:
1. Остановить скачивание;
2. Удалить старый торрент у себя из клиента (старые серии удалять не надо);
3. Скачать новый торрент и запустить его у себя в клиенте вместо старого, при этом указать клиенту путь в старую папку куда и должно происходить скачивание новых серий. Ваш клиент при этом должен произвести хеширование (проверку) старой папки и будет докачивать только те серии, которых у вас ещё нет. Старые серии при этом не удаляются, а продолжают раздаваться! Eсли вы уже удалили старые серии, то предотвратить повторную закачку старых серий можно, отжав галочку в соответствующих местах при запуске нового торрента.
Релиз от:

Release was prepared by RG Files-x

[Profile] [PM]
Display posts:    
Reply to topic

Current time is: 20-Apr 17:18

All times are UTC + 3



You cannot post new topics in this forum
You cannot reply to topics in this forum
You cannot edit your posts in this forum
You cannot delete your posts in this forum
You cannot vote in polls in this forum
You cannot attach files in this forum
You cannot download files in this forum