Сокровища императора [1-5 выпуск] (2024) WEBRip 1080p от Files-x

Reply to topic
 
Author Message

bond74 ®

Gender: Male

Longevity: 5 years 5 months

Posts: 2364

Post 12-Mar-2024 08:47

[Quote]

Сокровища императора Год выпуска: 2024
Жанр:ТВ-шоу, игровое шоу, реалити-шоу
Выпущено: Россия, ТНТ
Ведущий: Ольга Бузова, Михаил Галустян
В ролях: Сергей Жуков, Гарик Харламов, Жора Крыжовников, Артемий Лебедев, Валя Карнавал
Описание: Новое шоу ТНТ, в котором звезды будут проходить интересные и сложные испытания ради приза в миллион юаней (четырнадцать миллионов рублей)! Но делать это они будут не в одиночку, а в паре с теми, кого сами выберут для участия в проекте: коллегу или друга, родственника, члена семьи или даже домработницу. Главное — полное доверие и взаимопонимание. В рамках нового шоу пары участников отправляются в большое китайское приключение. В течение месяца им придется путешествовать по региону и на скорость выполнять разнообразные задания, получать которые они будут в каждом выпуске шоу. Победителем станет тот, кто первым придет к финальной точке. Участников ждут испытания на время, сообразительность и выносливость. Однако главное условие — в погоне за сокровищем проявить максимум человеческих качеств, делая правильный выбор и принимая верные решения. В проекте примут участие тринадцать пар. В каждом выпуске одна будет покидать шоу.
Качество: WEBRip 1080p
Видео: MPEG-4 AVC, ~7539 Кбит/с, 1920x1080, 25 кадр/с
Аудио: AC3, 2 ch, 192 Кбит/с
Продолжительность: 1 x ~ 02:14:00
Перевод: Не требуется
Субтитры: Нет

Скриншоты



MediaInfo

General
Unique ID : 249181501617815318623696522730803189407 (0xBB769C8EE393BB58BD09321A999E569F)
Complete name : C:\ШОУ\Сокровища императора.2024.WEB-DL 1080p.Files-x\01. Сокровища императора.2024.WEB-DL 1080p.Files-x.mkv
Format : Matroska
Format version : Version 4
File size : 7.24 GiB
Duration : 2 h 14 min
Overall bit rate mode : Variable
Overall bit rate : 7 733 kb/s
Frame rate : 25.000 FPS
Encoded date : 2024-03-11 20:40:00 UTC
Writing application : mkvmerge v7.8.0 ('River Man') 32bit built on Apr 3 2015 12:11:22
Writing library : libebml v1.3.1 + libmatroska v1.4.2
Video
ID : 1
Format : AVC
Format/Info : Advanced Video Codec
Format profile : High@L4.1
Format settings : CABAC / 4 Ref Frames
Format settings, CABAC : Yes
Format settings, Reference frames : 4 frames
Format settings, GOP : M=4, N=50
Codec ID : V_MPEG4/ISO/AVC
Duration : 2 h 14 min
Bit rate mode : Variable
Bit rate : 7 539 kb/s
Maximum bit rate : 8 000 kb/s
Width : 1 920 pixels
Height : 1 080 pixels
Display aspect ratio : 16:9
Frame rate mode : Constant
Frame rate : 25.000 FPS
Color space : YUV
Chroma subsampling : 4:2:0
Bit depth : 8 bits
Scan type : Progressive
Bits/(Pixel*Frame) : 0.145
Stream size : 7.06 GiB (97%)
Default : Yes
Forced : No
Color range : Limited
Color primaries : BT.709
Transfer characteristics : BT.709
Matrix coefficients : BT.709
Audio
ID : 2
Format : AC-3
Format/Info : Audio Coding 3
Commercial name : Dolby Digital
Codec ID : A_AC3
Duration : 2 h 14 min
Bit rate mode : Constant
Bit rate : 192 kb/s
Channel(s) : 2 channels
Channel layout : L R
Sampling rate : 44.1 kHz
Frame rate : 28.711 FPS (1536 SPF)
Compression mode : Lossy
Delay relative to video : -120 ms
Stream size : 184 MiB (2%)
Service kind : Complete Main
Default : Yes
Forced : No

Внимание! Раздача ведётся путём добавления новых серий

Раздача ведётся путём добавления новых серий, при каждом добавлении создаётся новый торрент. Чтобы начать докачку новой серии, пользователям необходимо сделать следующее:
- Остановить скачивание.
- Удалить старый торрент у себя из клиента (старые серии удалять не надо).
- Скачать новый торрент и запустить его у себя в клиенте вместо старого, при этом указать клиенту путь в старую папку куда и должно происходить скачивание новых серий.
Ваш клиент при этом должен произвести хеширование (проверку) старой папки (если не производит сам - помогите ему сделать это), и будет докачивать только те серии которых у вас ещё нет. Старые серии при этом не удаляются, а продолжают раздаваться!
Релиз от:

Release was prepared by RG Files-x

[Profile] [PM]
Display posts:    
Reply to topic

Current time is: 20-Apr 15:32

All times are UTC + 3



You cannot post new topics in this forum
You cannot reply to topics in this forum
You cannot edit your posts in this forum
You cannot delete your posts in this forum
You cannot vote in polls in this forum
You cannot attach files in this forum
You cannot download files in this forum