Невеста. Экстра любовь [1 сезон: 1-13 выпуск из 13] (2024) WEBRip 720p от Files-x

Reply to topic
 
Author Message

bond74 ®

Gender: Male

Longevity: 5 years 7 months

Posts: 2421

Post 07-Apr-2024 19:47

[Quote]

Невеста. Экстра любовь Год выпуска: 2024
Жанр: ТВ-шоу, реалити-шоу
Выпущено: Россия, ТНТ
В ролях:
Константин Гецати, Илья Ларионов, Александра Волкова, Ольга Мегарская, Алиса Кретова, Юлия Верховская, Карина Аракелян, Елизавета Адаменко, Ольга Шарыпова
О фильме: Новое шоу, в котором экстрасенс Константин Гецати отправится на поиски своей судьбы. Всегда сдержанный и справедливый, высокий, красивый и благородный, Константин Гецати после победы в 18-м сезоне «Битвы экстрасенсов» стал мечтой тысяч девушек по всей стране. Но до сих пор ни одна из них так и не смогла занять достойное место в его сердце. На кастинг в новый проект было подано несколько тысяч заявок. Но познакомиться с Константином Гецати смогут лишь 26 девушек. Уже после первой встречи Константин выберет 16 претенденток, среди которых и будет искать свою вторую половину в жарком и мистическом Марокко. Зрителей ждут невероятные локации, красивые свидания и, конечно, магия любви. Какими качествами должна обладать невеста экстрасенса? Должны ли у нее тоже быть мистические способности? Как можно растопить сердце аланского медиума? И сможет ли Константин Гецати разглядеть свою вторую половину?
Качество: WEBRip 720p
Видео: MPEG-4 AVC, ~ 1400 Кбит/с, 1280x720, 25 кадр/с
Аудио: AC3, 2 ch, 192 Кбит/с
Продолжительность:3 x ~ 02:26:00
Перевод: Не требуется [Русский]
Cубтитры: Нет

Скриншоты



MediaInfo

General
Unique ID : 173932986126727133552258137673510241546 (0x82DA464E23BB6A2FAB33AD472C79450A)
Complete name : C:\films\Невеста. Экстра любовь.2024.WEB-DL 720p.Files-x\02. Невеста. Экстра любовь.2024.WEB-DL 720p.Files-x.mkv
Format : Matroska
Format version : Version 4
File size : 775 MiB
Duration : 1 h 10 min
Overall bit rate mode : Variable
Overall bit rate : 1 546 kb/s
Frame rate : 25.000 FPS
Encoded date : 2024-03-30 21:16:22 UTC
Writing application : mkvmerge v7.8.0 ('River Man') 32bit built on Apr 3 2015 12:11:22
Writing library : libebml v1.3.1 + libmatroska v1.4.2
Video
ID : 1
Format : AVC
Format/Info : Advanced Video Codec
Format profile : High@L4.1
Format settings : CABAC / 4 Ref Frames
Format settings, CABAC : Yes
Format settings, Reference frames : 4 frames
Format settings, GOP : M=4, N=50
Codec ID : V_MPEG4/ISO/AVC
Duration : 1 h 10 min
Bit rate mode : Variable
Bit rate : 1 352 kb/s
Maximum bit rate : 5 000 kb/s
Width : 1 280 pixels
Height : 720 pixels
Display aspect ratio : 16:9
Frame rate mode : Constant
Frame rate : 25.000 FPS
Color space : YUV
Chroma subsampling : 4:2:0
Bit depth : 8 bits
Scan type : Progressive
Bits/(Pixel*Frame) : 0.059
Stream size : 677 MiB (87%)
Default : Yes
Forced : No
Color range : Limited
Color primaries : BT.709
Transfer characteristics : BT.709
Matrix coefficients : BT.709
Audio
ID : 2
Format : AC-3
Format/Info : Audio Coding 3
Commercial name : Dolby Digital
Codec ID : A_AC3
Duration : 1 h 10 min
Bit rate mode : Constant
Bit rate : 192 kb/s
Channel(s) : 2 channels
Channel layout : L R
Sampling rate : 44.1 kHz
Frame rate : 28.711 FPS (1536 SPF)
Compression mode : Lossy
Delay relative to video : -120 ms
Stream size : 96.2 MiB (12%)
Service kind : Complete Main
Default : Yes
Forced : No

Внимание! Раздача ведётся путём добавления новых серий

Раздача ведётся путём добавления новых серий, при каждом добавлении создаётся новый торрент. Чтобы начать докачку новой серии, пользователям необходимо сделать следующее:
- Остановить скачивание.
- Удалить старый торрент у себя из клиента (старые серии удалять не надо).
- Скачать новый торрент и запустить его у себя в клиенте вместо старого, при этом указать клиенту путь в старую папку куда и должно происходить скачивание новых серий.
Ваш клиент при этом должен произвести хеширование (проверку) старой папки (если не производит сам - помогите ему сделать это), и будет докачивать только те серии которых у вас ещё нет. Старые серии при этом не удаляются, а продолжают раздаваться!
Релиз от:

Release was prepared by RG Files-x

[Profile] [PM]
Display posts:    
Reply to topic

Current time is: 24-Jun 23:25

All times are UTC + 3



You cannot post new topics in this forum
You cannot reply to topics in this forum
You cannot edit your posts in this forum
You cannot delete your posts in this forum
You cannot vote in polls in this forum
You cannot attach files in this forum
You cannot download files in this forum