Другой мир: Коллекция / Underworld: Collection (2003-2016) BDRip 1080p | Лицензия

Reply to topic
 
Author Message

HardwareMining ®

Gender: Male

Longevity: 4 years 7 months

Posts: 611

Post 19-Apr-2024 15:08

[Quote]

Другой мир: Коллекция / Underworld: Collection

Другой мир / Underworld - 2003

Другой мир / Underworld
«Во время финальной битвы вампиров и оборотней на чьей стороне будете Вы?»
Год выпуска: 2003
Жанр: фэнтези, боевик, триллер
Выпущено: США, Великобритания, Германия, Венгрия
Режиссер: Лен Уайзман
В ролях: Кейт Бекинсейл, Скотт Спидман, Майкл Шин, Шэйн Бролли, Билл Найи, Эрвин Ледер, София Майлс, Робби Ги, Вентворт Миллер, Кевин Гревье
О фильме:
Столетиями властители царства мрака, вампиры и оборотни ведут беспощадную войну, невидимую человеческому взору. Бесстрашная Селина, воин-вампир, каждую ночь истребляет оборотней, влекомая неутолимой жаждой мести. Ее клан уверен, что вампирам удалось одержать верх над заклятыми врагами, но Селина подозревает, что у оборотней есть тайный план, сулящий гибель ее роду.
В центре этого плана – смертный парень Майкл. Его генетический код – ключ к созданию сверхсущества, которое будет бессмертно и неуязвимо. Теперь Селина должна любой ценой первой добраться до него, чтобы определить исход вечного противостояния двух могущественных рас, которых люди до сих пор считали мифом...

Качество: BDRip 1080p
Видео: AVC, 1920x816 (2.35:1), 23,976 fps, 11 Mb/s (0.292 bit/pixel)
Аудио: русский, AC3, 5.1, 48 kHz, 640 kbps CBR
Продолжительность: 02:01:13
Перевод: Дублированный | Лицензия
Субтитры: Отсутствуют

Скриншоты

MediaInfo

General
Unique ID : 180365530192554464613529060710475690601 (0x87B12336B1A0CF46A4CEE823FEF8F269)
Complete name : E:\GF\Underworld Collection\Underworld.2003.BDRip.1080p.Rip.by.HardwareMining.R.G.Generalfilm.mkv
Format : Matroska
Format version : Version 4
File size : 9.81 GiB
Duration : 2 h 1 min
Overall bit rate : 11.6 Mb/s
Frame rate : 23.976 FPS
Movie name : Underworld.2003.BDRip.1080p.Rip.by.HardwareMining.R.G.Generalfilm
Encoded date : 2024-03-31 10:09:24 UTC
Writing application : mkvmerge v6.8.0 ('Theme for Great Cities') 32bit built on Mar 2 2014 21:27:07
Writing library : libebml v1.3.0 + libmatroska v1.4.1
Cover : Yes
Attachments : cover.png
Video
ID : 1
Format : AVC
Format/Info : Advanced Video Codec
Format profile : High@L4.1
Format settings : CABAC / 4 Ref Frames
Format settings, CABAC : Yes
Format settings, Reference frames : 4 frames
Codec ID : V_MPEG4/ISO/AVC
Duration : 2 h 1 min
Bit rate : 11.0 Mb/s
Width : 1 920 pixels
Height : 816 pixels
Display aspect ratio : 2.35:1
Frame rate mode : Constant
Frame rate : 23.976 FPS
Color space : YUV
Chroma subsampling : 4:2:0
Bit depth : 8 bits
Scan type : Progressive
Bits/(Pixel*Frame) : 0.292
Stream size : 9.08 GiB (92%)
Writing library : x264 core 130 r2273 b3065e6
Encoding settings : cabac=1 / ref=4 / deblock=1:-2:-1 / analyse=0x3:0x133 / me=umh / subme=10 / psy=1 / psy_rd=1.00:0.08 / mixed_ref=1 / me_range=32 / chroma_me=1 / trellis=2 / 8x8dct=1 / cqm=0 / deadzone=21,11 / fast_pskip=0 / chroma_qp_offset=-3 / threads=48 / lookahead_threads=6 / sliced_threads=0 / nr=0 / decimate=1 / interlaced=0 / bluray_compat=0 / constrained_intra=0 / bframes=11 / b_pyramid=2 / b_adapt=2 / b_bias=0 / direct=3 / weightb=1 / open_gop=0 / weightp=2 / keyint=250 / keyint_min=25 / scenecut=40 / intra_refresh=0 / rc=2pass / mbtree=0 / bitrate=10970 / ratetol=1.0 / qcomp=0.60 / qpmin=0 / qpmax=69 / qpstep=4 / cplxblur=20.0 / qblur=0.5 / ip_ratio=1.40 / pb_ratio=1.30 / aq=2:1.00
Language : English
Default : Yes
Forced : No
Color range : Limited
Color primaries : BT.709
Transfer characteristics : BT.709
Matrix coefficients : BT.709
Audio
ID : 2
Format : AC-3
Format/Info : Audio Coding 3
Commercial name : Dolby Digital
Codec ID : A_AC3
Duration : 2 h 1 min
Bit rate mode : Constant
Bit rate : 640 kb/s
Channel(s) : 6 channels
Channel layout : L R C LFE Ls Rs
Sampling rate : 48.0 kHz
Frame rate : 31.250 FPS (1536 SPF)
Compression mode : Lossy
Stream size : 555 MiB (6%)
Title : Dub | Лицензия
Language : Russian
Service kind : Complete Main
Default : Yes
Forced : Yes
AC3_metadata cmixlev : -4.5 dB
surmixlev : -6 dB
Menu
00:00:00.000 : en:(01)00:00:00:000
00:02:45.039 : en:(02)00:02:45:039
00:14:27.867 : en:(03)00:14:27:867
00:24:31.720 : en:(04)00:24:31:720
00:31:23.756 : en:(05)00:31:23:756
00:39:44.048 : en:(06)00:39:44:048
00:43:23.183 : en:(07)00:43:23:183
00:45:44.575 : en:(08)00:45:44:575
00:57:32.198 : en:(09)00:57:32:198
01:09:10.020 : en:(10)01:09:10:020
01:14:59.328 : en:(11)01:14:59:328
01:17:05.579 : en:(12)01:17:05:579
01:23:28.753 : en:(13)01:23:28:753
01:33:03.953 : en:(14)01:33:03:953
01:46:26.171 : en:(15)01:46:26:171
01:49:42.993 : en:(16)01:49:42:993
02:01:09.512 : en:(17)02:01:09:51

Другой мир 2: Эволюция / Underworld: Evolution - 2006

Другой мир 2: Эволюция / Underworld: Evolution
«Новая глава. Новая раса. Новая битва»
Год выпуска: 2006
Жанр: фэнтези, боевик, триллер
Выпущено: США, Канада | Lakeshore Entertainment, Screen Gems Inc.
Режиссер: Лен Уайзман
В ролях: Кейт Бекинсейл, Скотт Спидман, Тони Каррен, Шэйн Бролли, Дерек Якоби, Билл Найи, Стивен Макинтош, Зита Горог, Брайан Стил, Скотт МакЭлрой, Джон Манн, Майкл Шин, Софи Майлс, Ричард Цетрон, Майк Мукатис, Кристин Даниэль, Кайя Джестал, Аттила Ловаджи, Александр Грант, Моника Гамбург, Лили Мо Шин
О фильме:
В мире, недоступном простым смертным, идет борьба между вампирами и оборотнями. События фильма повествуют об истоках этой вражды, ставшей для вампира Селин и Майкла, полуоборотня, проклятьем. Сражаясь с врагами из обоих кланов, они познают тайну своего происхождения. Их ждет великая битва, которая покончит с вечным противостоянием.

Качество: BDRip 1080p
Видео: AVC, 1920x800 (2.40:1), 23,976 fps, 8970 kb/s (0.244 bit/pixel)
Аудио: русский, AC3, 5.1, 48 kHz, 640 kbps CBR
Продолжительность: 01:46:14
Перевод: Дублированный | Лицензия
Субтитры: Отсутствуют

Скриншоты

MediaInfo

General
Unique ID : 206020141180247562458400366894495366220 (0x9AFE09310B1A6BB1A5D2C724A960FC4C)
Complete name : E:\GF\Underworld Collection\Underworld.Evolution.2006.BDRip.1080p.Rip.by.HardwareMining.R.G.Generalfilm.mkv
Format : Matroska
Format version : Version 4
File size : 7.13 GiB
Duration : 1 h 46 min
Overall bit rate : 9 609 kb/s
Frame rate : 23.976 FPS
Movie name : Underworld.Evolution.2006.BDRip.1080p.Rip.by.HardwareMining.R.G.Generalfilm
Encoded date : 2024-03-31 11:48:06 UTC
Writing application : mkvmerge v6.8.0 ('Theme for Great Cities') 32bit built on Mar 2 2014 21:27:07
Writing library : libebml v1.3.0 + libmatroska v1.4.1
Cover : Yes
Attachments : cover.png
Video
ID : 1
Format : AVC
Format/Info : Advanced Video Codec
Format profile : High@L4.1
Format settings : CABAC / 4 Ref Frames
Format settings, CABAC : Yes
Format settings, Reference frames : 4 frames
Codec ID : V_MPEG4/ISO/AVC
Duration : 1 h 46 min
Bit rate : 8 970 kb/s
Width : 1 920 pixels
Height : 800 pixels
Display aspect ratio : 2.40:1
Frame rate mode : Constant
Frame rate : 23.976 FPS
Color space : YUV
Chroma subsampling : 4:2:0
Bit depth : 8 bits
Scan type : Progressive
Bits/(Pixel*Frame) : 0.244
Stream size : 6.51 GiB (91%)
Writing library : x264 core 130 r2273 b3065e6
Encoding settings : cabac=1 / ref=4 / deblock=1:-2:-1 / analyse=0x3:0x133 / me=umh / subme=10 / psy=1 / psy_rd=1.00:0.08 / mixed_ref=1 / me_range=32 / chroma_me=1 / trellis=2 / 8x8dct=1 / cqm=0 / deadzone=21,11 / fast_pskip=0 / chroma_qp_offset=-3 / threads=48 / lookahead_threads=6 / sliced_threads=0 / nr=0 / decimate=1 / interlaced=0 / bluray_compat=0 / constrained_intra=0 / bframes=11 / b_pyramid=2 / b_adapt=2 / b_bias=0 / direct=3 / weightb=1 / open_gop=0 / weightp=2 / keyint=250 / keyint_min=25 / scenecut=40 / intra_refresh=0 / rc=2pass / mbtree=0 / bitrate=8970 / ratetol=1.0 / qcomp=0.60 / qpmin=0 / qpmax=69 / qpstep=4 / cplxblur=20.0 / qblur=0.5 / ip_ratio=1.40 / pb_ratio=1.30 / aq=2:1.00
Language : English
Default : Yes
Forced : No
Color range : Limited
Color primaries : BT.709
Transfer characteristics : BT.709
Matrix coefficients : BT.709
Audio
ID : 2
Format : AC-3
Format/Info : Audio Coding 3
Commercial name : Dolby Digital
Codec ID : A_AC3
Duration : 1 h 46 min
Bit rate mode : Constant
Bit rate : 640 kb/s
Channel(s) : 6 channels
Channel layout : L R C LFE Ls Rs
Sampling rate : 48.0 kHz
Frame rate : 31.250 FPS (1536 SPF)
Compression mode : Lossy
Stream size : 486 MiB (7%)
Title : Dub | Лицензия
Language : Russian
Service kind : Complete Main
Default : Yes
Forced : No
AC3_metadata cmixlev : -4.5 dB
surmixlev : -6 dB
Menu
00:00:00.000 : en:(01)00:00:00:000
00:09:46.586 : en:(02)00:09:46:586
00:12:21.532 : en:(03)00:12:21:532
00:17:18.829 : en:(04)00:17:18:829
00:23:13.350 : en:(05)00:23:13:350
00:33:49.944 : en:(06)00:33:49:944
00:38:59.628 : en:(07)00:38:59:628
00:43:34.278 : en:(08)00:43:34:278
00:49:14.743 : en:(09)00:49:14:743
00:56:47.237 : en:(10)00:56:47:237
01:03:12.580 : en:(11)01:03:12:580
01:10:36.190 : en:(12)01:10:36:190
01:17:21.637 : en:(13)01:17:21:637
01:21:31.136 : en:(14)01:21:31:136
01:28:48.573 : en:(15)01:28:48:573
01:32:16.614 : en:(16)01:32:16:614

Другой мир: Восстание ликанов / Underworld: Rise of the Lycans - 2009

Другой мир: Восстание ликанов / Underworld: Rise of the Lycans
«У каждой войны есть начало» Год выпуска: 2009
Жанр: фэнтези, боевик, триллер
Выпущено: США, Новая Зеландия, Австралия | Lakeshore Entertainment, Screen Gems Inc..
Режиссер: Патрик Татопулос
В ролях: Майкл Шин, Билл Найи, Рона Митра, Стивен Макинтош, Кевин Гревье, Дэвид Эстон, Джеральдин Брофи, Лейтон Кардно, Алекс Кэрролл, Элизабет Хоторн
О фильме:
История, прослеживающая происхождение вековой кровной борьбы между аристократичными вампирами и их рабами, ликанами. Люциан — лидер, который сплотит их против Виктора, жестокого старейшины вампиров. К Люциану присоединяется дочь Виктора, Соня, и помогает ему в борьбе за свободу.

Качество: BDRip 1080p
Видео: AVC, 1920x800 (2.40:1), 23,976 fps, 19.0 Mb/s (0.515 bit/pixel)
Аудио: русский, AC3, 5.1, 48 kHz, 640 kbps CBR
Продолжительность: 01:32:28
Перевод: Дублированный | Лицензия
Субтитры: Отсутствуют

Скриншоты

MediaInfo

General
Unique ID : 230029354465293739079045972634709282171 (0xAD0E0ACCA78334F79D1F08899DF84D7B)
Complete name : E:\GF\Underworld Collection\Underworld.Rise.of.the.Lycans.2009.BDRip.1080p.Rip.by.HardwareMining.R.G.Generalfilm.mkv
Format : Matroska
Format version : Version 4
File size : 12.7 GiB
Duration : 1 h 32 min
Overall bit rate : 19.6 Mb/s
Frame rate : 23.976 FPS
Movie name : Underworld.Rise.of.the.Lycans.2009.BDRip.1080p.Rip.by.HardwareMining.R.G.Generalfilm
Encoded date : 2024-03-31 14:03:23 UTC
Writing application : mkvmerge v6.8.0 ('Theme for Great Cities') 32bit built on Mar 2 2014 21:27:07
Writing library : libebml v1.3.0 + libmatroska v1.4.1
Cover : Yes
Attachments : cover.png
Video
ID : 1
Format : AVC
Format/Info : Advanced Video Codec
Format profile : High@L4.1
Format settings : CABAC / 4 Ref Frames
Format settings, CABAC : Yes
Format settings, Reference frames : 4 frames
Codec ID : V_MPEG4/ISO/AVC
Duration : 1 h 32 min
Bit rate : 19.0 Mb/s
Width : 1 920 pixels
Height : 800 pixels
Display aspect ratio : 2.40:1
Frame rate mode : Constant
Frame rate : 23.976 FPS
Color space : YUV
Chroma subsampling : 4:2:0
Bit depth : 8 bits
Scan type : Progressive
Bits/(Pixel*Frame) : 0.515
Stream size : 12.0 GiB (95%)
Writing library : x264 core 130 r2273 b3065e6
Encoding settings : cabac=1 / ref=4 / deblock=1:-2:-1 / analyse=0x3:0x133 / me=umh / subme=10 / psy=1 / psy_rd=1.00:0.08 / mixed_ref=1 / me_range=32 / chroma_me=1 / trellis=2 / 8x8dct=1 / cqm=0 / deadzone=21,11 / fast_pskip=0 / chroma_qp_offset=-3 / threads=48 / lookahead_threads=6 / sliced_threads=0 / nr=0 / decimate=1 / interlaced=0 / bluray_compat=0 / constrained_intra=0 / bframes=11 / b_pyramid=2 / b_adapt=2 / b_bias=0 / direct=3 / weightb=1 / open_gop=0 / weightp=2 / keyint=250 / keyint_min=25 / scenecut=40 / intra_refresh=0 / rc=2pass / mbtree=0 / bitrate=18970 / ratetol=1.0 / qcomp=0.60 / qpmin=0 / qpmax=69 / qpstep=4 / cplxblur=20.0 / qblur=0.5 / ip_ratio=1.40 / pb_ratio=1.30 / aq=2:1.00
Language : English
Default : Yes
Forced : No
Color range : Limited
Color primaries : BT.709
Transfer characteristics : BT.709
Matrix coefficients : BT.709
Audio
ID : 2
Format : AC-3
Format/Info : Audio Coding 3
Commercial name : Dolby Digital
Codec ID : A_AC3
Duration : 1 h 32 min
Bit rate mode : Constant
Bit rate : 640 kb/s
Channel(s) : 6 channels
Channel layout : L R C LFE Ls Rs
Sampling rate : 48.0 kHz
Frame rate : 31.250 FPS (1536 SPF)
Compression mode : Lossy
Stream size : 423 MiB (3%)
Title : Dub | Лицензия
Service kind : Complete Main
Default : Yes
Forced : No
Dialog Normalization : -31 dB
cmixlev : -4.5 dB
surmixlev : -6 dB
dialnorm_Average : -31 dB
dialnorm_Minimum : -31 dB
dialnorm_Maximum : -31 dB
Menu
00:00:00.000 : en:(01)00:00:00:000
00:00:57.057 : en:(02)00:00:57:057
00:06:19.629 : en:(03)00:06:19:629
00:06:19.879 : en:(04)00:06:19:879
00:11:42.785 : en:(05)00:11:42:785
00:16:09.969 : en:(06)00:16:09:969
00:16:44.628 : en:(07)00:16:44:628
00:19:44.516 : en:(08)00:19:44:516
00:22:44.071 : en:(09)00:22:44:071
00:24:33.054 : en:(10)00:24:33:054
00:27:42.952 : en:(11)00:27:42:952
00:28:51.396 : en:(12)00:28:51:396
00:30:28.493 : en:(13)00:30:28:493
00:31:35.184 : en:(14)00:31:35:184
00:35:48.771 : en:(15)00:35:48:771
00:36:33.149 : en:(16)00:36:33:149
00:39:11.432 : en:(17)00:39:11:432
00:40:17.415 : en:(18)00:40:17:415
00:41:48.005 : en:(19)00:41:48:005
00:46:28.869 : en:(20)00:46:28:869
00:46:32.331 : en:(21)00:46:32:331
00:50:50.672 : en:(22)00:50:50:672
00:50:54.593 : en:(23)00:50:54:593
00:52:35.485 : en:(24)00:52:35:485
00:55:08.221 : en:(25)00:55:08:221
00:56:15.997 : en:(26)00:56:15:997
01:00:39.302 : en:(27)01:00:39:302
01:00:52.690 : en:(28)01:00:52:690
01:04:27.572 : en:(29)01:04:27:572
01:07:13.279 : en:(30)01:07:13:279
01:11:21.944 : en:(31)01:11:21:944
01:13:29.321 : en:(32)01:13:29:321
01:16:25.414 : en:(33)01:16:25:414
01:16:38.844 : en:(34)01:16:38:844
01:18:10.394 : en:(35)01:18:10:394
01:22:33.156 : en:(36)01:22:33:156

Другой мир: Пробуждение / Underworld: Awakening - 2012

Другой мир: Пробуждение / Underworld: Awakening
«Месть проснулась» Год выпуска: 2012
Жанр: фэнтези, боевик, триллер
Выпущено: США, Канада | Sony, Columbia
Режиссеры: Монс Морлинд, Бьёрн Стейн
В ролях: Кейт Бекинсейл, Стивен Ри, Майкл Или, Тео Джеймс, Индия Айли, Чарльз Дэнс, Сандрин Холт, Кристен Холден-Рид, Джейкоб Блэр, Адам Рейд
О фильме:
Человечество обнаружило существование вампиров и ликанов и начинает войну, чтобы уничтожить эти расы. Селин прорывается к пирсу, где её ждет Майкл для того чтобы вместе отплыть на корабле и скрыться ото всех. Но у пирса их ждет засада. Взрыв гранаты разбрасывает Селин и Майкла в разные стороны. 12 лет спустя Селин просыпается от криогенного сна в лаборатории и узнает о существовании родной дочери Евы — гибрида вампира и ликана. Теперь Селин нужно защитить Еву от ликанов, которые намерены использовать ее, чтобы устранить у своего вида уязвимость от серебра...

Качество: BDRip 1080p
Видео: AVC, 1920x800 (2.40:1), 23,976 fps, 9970 kb/s (0.271 bit/pixel)
Аудио: русский, AC3, 5.1, 48 kHz, 640 kbps CBR
Продолжительность: 01:28:34
Перевод: Дублированный | Лицензия
Субтитры: Отсутствуют

Скриншоты

MediaInfo

General
Unique ID : 178297480688038889840986384691761871742 (0x8622D8803A21A1939F94A72D6C197B7E)
Complete name : E:\GF\Underworld Collection\Underworld.Awakening.2012.BDRip.1080p.Rip.by.HardwareMining.R.G.Generalfilm.mkv
Format : Matroska
Format version : Version 4
File size : 6.56 GiB
Duration : 1 h 28 min
Overall bit rate : 10.6 Mb/s
Frame rate : 23.976 FPS
Movie name : Underworld.Awakening.2012.BDRip.1080p.Rip.by.HardwareMining.R.G.Generalfilm
Encoded date : 2024-04-03 13:49:27 UTC
Writing application : mkvmerge v6.8.0 ('Theme for Great Cities') 32bit built on Mar 2 2014 21:27:07
Writing library : libebml v1.3.0 + libmatroska v1.4.1
Cover : Yes
Attachments : cover.png
Video
ID : 1
Format : AVC
Format/Info : Advanced Video Codec
Format profile : High@L4.1
Format settings : CABAC / 4 Ref Frames
Format settings, CABAC : Yes
Format settings, Reference frames : 4 frames
Codec ID : V_MPEG4/ISO/AVC
Duration : 1 h 28 min
Bit rate : 9 970 kb/s
Width : 1 920 pixels
Height : 800 pixels
Display aspect ratio : 2.40:1
Frame rate mode : Constant
Frame rate : 23.976 FPS
Color space : YUV
Chroma subsampling : 4:2:0
Bit depth : 8 bits
Scan type : Progressive
Bits/(Pixel*Frame) : 0.271
Stream size : 6.04 GiB (92%)
Writing library : x264 core 130 r2273 b3065e6
Encoding settings : cabac=1 / ref=4 / deblock=1:-2:-1 / analyse=0x3:0x133 / me=umh / subme=10 / psy=1 / psy_rd=1.00:0.08 / mixed_ref=1 / me_range=32 / chroma_me=1 / trellis=2 / 8x8dct=1 / cqm=0 / deadzone=21,11 / fast_pskip=0 / chroma_qp_offset=-3 / threads=48 / lookahead_threads=6 / sliced_threads=0 / nr=0 / decimate=1 / interlaced=0 / bluray_compat=0 / constrained_intra=0 / bframes=11 / b_pyramid=2 / b_adapt=2 / b_bias=0 / direct=3 / weightb=1 / open_gop=0 / weightp=2 / keyint=250 / keyint_min=25 / scenecut=40 / intra_refresh=0 / rc=2pass / mbtree=0 / bitrate=9970 / ratetol=1.0 / qcomp=0.60 / qpmin=0 / qpmax=69 / qpstep=4 / cplxblur=20.0 / qblur=0.5 / ip_ratio=1.40 / pb_ratio=1.30 / aq=2:1.00
Language : English
Default : Yes
Forced : No
Color range : Limited
Color primaries : BT.709
Transfer characteristics : BT.709
Matrix coefficients : BT.709
Audio
ID : 2
Format : AC-3
Format/Info : Audio Coding 3
Commercial name : Dolby Digital
Codec ID : A_AC3
Duration : 1 h 28 min
Bit rate mode : Constant
Bit rate : 640 kb/s
Channel(s) : 6 channels
Channel layout : L R C LFE Ls Rs
Sampling rate : 48.0 kHz
Frame rate : 31.250 FPS (1536 SPF)
Compression mode : Lossy
Stream size : 405 MiB (6%)
Title : Dub | Лицензия
Language : Russian
Service kind : Complete Main
Default : Yes
Forced : Yes
Dialog Normalization : -31 dB
compr : -0.28 dB
cmixlev : -3.0 dB
surmixlev : -3 dB
dialnorm_Average : -31 dB
dialnorm_Minimum : -31 dB
dialnorm_Maximum : -31 dB
Menu
00:00:00.000 : en:(01)00:00:00:000
00:04:26.057 : en:(02)00:04:26:057
00:07:45.339 : en:(03)00:07:45:339
00:16:20.187 : en:(04)00:16:20:187
00:21:11.812 : en:(05)00:21:11:812
00:24:49.988 : en:(06)00:24:49:988
00:30:29.827 : en:(07)00:30:29:827
00:35:31.754 : en:(08)00:35:31:754
00:40:04.944 : en:(09)00:40:04:944
00:45:23.929 : en:(10)00:45:23:929
00:52:30.730 : en:(11)00:52:30:730
00:57:21.562 : en:(12)00:57:21:562
01:02:53.936 : en:(13)01:02:53:936
01:07:43.726 : en:(14)01:07:43:726
01:12:18.500 : en:(15)01:12:18:500
01:16:41.429 : en:(16)01:16:41:429

Другой мир: Войны крови / Underworld: Blood Wars - 2016

Другой мир: Войны крови / Underworld: Blood Wars
«Protect the bloodline» Год выпуска: 2016
Жанр: ужасы, фэнтези, боевик, приключения
Выпущено: США | Sony, Screen Gems, Lakeshore Entertainment, Sketch Films.
Режиссер: Анна Ферстер
В ролях: Кейт Бекинсейл, Тео Джеймс, Тобайас Мензис, Лара Пулвер, Чарльз Дэнс, Джеймс Фолкнер, Петер Андерссон, Клементайн Николсон, Брэдли Джеймс, Дэйзи Хэд
О фильме:
Воительница-вампир Селин присоединяется к решающему бою между ликанами и кланом вампиров, который её предал. Она должна остановить бесконечную войну, даже если ей придётся пойти на самую большую жертву.

Качество: BDRip 1080p
Видео: AVC, 1920x856 (2.25:1), 23,976 fps, 7001 kb/s (0.178 bit/pixel)
Аудио: русский, AC3, 5.1, 48 kHz, 640 kbps CBR
Продолжительность: 01:31:32
Перевод: Дублированный | Лицензия
Субтитры: Отсутствуют

Скриншоты

MediaInfo

General
Unique ID : 233285364285968690536638364353219689636 (0xAF81207A53BBC97BAF5EE393D38E7CA4)
Complete name : E:\GF\Underworld Collection\Underworld.Blood.Wars.2016.BDRip.1080p.Rip.by.HardwareMining.R.G.Generalfilm.mkv
Format : Matroska
Format version : Version 4
File size : 4.89 GiB
Duration : 1 h 31 min
Overall bit rate : 7 651 kb/s
Frame rate : 23.976 FPS
Movie name : Underworld.Blood.Wars.2016.BDRip.1080p.Rip.by.HardwareMining.R.G.Generalfilm
Encoded date : 2024-04-03 15:34:14 UTC
Writing application : mkvmerge v6.8.0 ('Theme for Great Cities') 32bit built on Mar 2 2014 21:27:07
Writing library : libebml v1.3.0 + libmatroska v1.4.1
Cover : Yes
Attachments : cover.png
Video
ID : 1
Format : AVC
Format/Info : Advanced Video Codec
Format profile : High@L4.1
Format settings : CABAC / 4 Ref Frames
Format settings, CABAC : Yes
Format settings, Reference frames : 4 frames
Codec ID : V_MPEG4/ISO/AVC
Duration : 1 h 31 min
Bit rate : 7 001 kb/s
Width : 1 920 pixels
Height : 856 pixels
Display aspect ratio : 2.25:1
Frame rate mode : Constant
Frame rate : 23.976 FPS
Color space : YUV
Chroma subsampling : 4:2:0
Bit depth : 8 bits
Scan type : Progressive
Bits/(Pixel*Frame) : 0.178
Stream size : 4.39 GiB (90%)
Writing library : x264 core 130 r2273 b3065e6
Encoding settings : cabac=1 / ref=4 / deblock=1:-2:-1 / analyse=0x3:0x133 / me=umh / subme=10 / psy=1 / psy_rd=1.00:0.08 / mixed_ref=1 / me_range=32 / chroma_me=1 / trellis=2 / 8x8dct=1 / cqm=0 / deadzone=21,11 / fast_pskip=0 / chroma_qp_offset=-3 / threads=48 / lookahead_threads=6 / sliced_threads=0 / nr=0 / decimate=1 / interlaced=0 / bluray_compat=0 / constrained_intra=0 / bframes=11 / b_pyramid=2 / b_adapt=2 / b_bias=0 / direct=3 / weightb=1 / open_gop=0 / weightp=2 / keyint=250 / keyint_min=25 / scenecut=40 / intra_refresh=0 / rc=2pass / mbtree=0 / bitrate=7001 / ratetol=1.0 / qcomp=0.60 / qpmin=0 / qpmax=69 / qpstep=4 / cplxblur=20.0 / qblur=0.5 / ip_ratio=1.40 / pb_ratio=1.30 / aq=2:1.00
Language : English
Default : Yes
Forced : No
Color range : Limited
Color primaries : BT.709
Transfer characteristics : BT.709
Matrix coefficients : BT.709
Audio
ID : 2
Format : AC-3
Format/Info : Audio Coding 3
Commercial name : Dolby Digital
Codec ID : A_AC3
Duration : 1 h 31 min
Bit rate mode : Constant
Bit rate : 640 kb/s
Channel(s) : 6 channels
Channel layout : L R C LFE Ls Rs
Sampling rate : 48.0 kHz
Frame rate : 31.250 FPS (1536 SPF)
Compression mode : Lossy
Stream size : 419 MiB (8%)
Title : Dub | Лицензия
Language : Russian
Service kind : Complete Main
Default : Yes
Forced : No
Dialog Normalization : -31 dB
compr : 5.74 dB
dynrng : 5.46 dB
cmixlev : -3.0 dB
surmixlev : -3 dB
dialnorm_Average : -31 dB
dialnorm_Minimum : -31 dB
dialnorm_Maximum : -31 dB
Menu
00:00:00.000 : en:00:00:00.000
00:04:30.479 : en:00:04:30.479
00:09:25.315 : en:00:09:25.315
00:13:59.964 : en:00:13:59.964
00:18:56.010 : en:00:18:56.010
00:24:27.091 : en:00:24:27.091
00:31:15.957 : en:00:31:15.957
00:36:26.810 : en:00:36:26.810
00:42:17.034 : en:00:42:17.034
00:47:37.646 : en:00:47:37.646
00:52:22.181 : en:00:52:22.181
00:58:59.327 : en:00:58:59.327
01:04:31.659 : en:01:04:31.659
01:08:52.128 : en:01:08:52.128
01:13:47.131 : en:01:13:47.131
01:20:08.512 : en:01:20:08.51
Релиз от:
[Profile] [PM]
Display posts:    
Reply to topic

Current time is: 31-May 02:21

All times are UTC + 3



You cannot post new topics in this forum
You cannot reply to topics in this forum
You cannot edit your posts in this forum
You cannot delete your posts in this forum
You cannot vote in polls in this forum
You cannot attach files in this forum
You cannot download files in this forum