Под неласковым небом [1-4 серии из 4] (2023) WEB-DLRip от Files-х

Reply to topic
 
Author Message

patriot67 ®

Gender: Male

Longevity: 4 years 6 months

Posts: 302

Post 19-Apr-2024 19:21

[Quote]

Под неласковым небом Год выпуска: 2023
Жанр: Драма, военный
Выпущено: Россия, Кинокомпания "СТРАТЕГ ГРУПП"
Режиссер: Игорь Багатурия
В ролях: Евгений Романцов, Алексей Назаров (II), Андрей Попов (IV), Искандер Шайхутдинов, Виктория Корлякова, Наталья Гришагина, Алёна Фалалеева, Владислав Несин, Эдуард Флёров
О фильме: Захар, Расимка, Яшка и Вилен познакомились в детском доме. Туда мальчики попали разными путями. От Захара мать отказалась сразу после рождения, а родителей Расима загрызли волки. Вилен был сыном директора детдома, чуткой и заботливой Надежды Романовны. Яша рос с отцом-алкоголиком, после смерти которого его маму Матрёну взяли на работу в детдомовскую столовую. Спустя годы друзья выросли, получили профессии, и, казалось, что вся жизнь впереди. Но привычные будни молодых героев и их планы на будущее перечёркивает известие о начале Великой Отечественной войны. Захар, Расим, Яков и Вилен окажутся в гуще исторических событий, в которых переплетутся опасность со смелостью, трагедия с любовью, а патриотизм с предательством.

Качество: WEB-DLRip
Видео: XviD, ~ 1600 Кбит/с, 720x400, 25 кадр/с
Аудио: AC3, 6 ch, 384 Кбит/с
Продолжительность: 4 x ~ 00:46:55
Перевод: Не требуется
Cубтитры: Нет

Скриншоты


MediaInfo

General
Complete name : D:\films\Под неласковым небом.2023.WEB-DLRip.Files-x\02. Под неласковым небом.2023.WEB-DLRip.Files-x.avi
Format : AVI
Format/Info : Audio Video Interleave
Format settings : BitmapInfoHeader / WaveFormatEx
File size : 667 MiB
Duration : 46 min 55 s
Overall bit rate : 1 988 kb/s
Frame rate : 25.000 FPS
Writing application : VirtualDubMod 1.5.10.3 | www.virtualdub-fr.org || (build 2550/release)
Writing library : VirtualDubMod build 2550/release
Video
ID : 0
Format : MPEG-4 Visual
Format profile : Advanced Simple@L5
Format settings : BVOP1 / Custom Matrix
Format settings, BVOP : 1
Format settings, QPel : No
Format settings, GMC : No warppoints
Format settings, Matrix : Custom
Codec ID : XVID
Codec ID/Hint : XviD
Duration : 46 min 55 s
Bit rate : 1 594 kb/s
Width : 720 pixels
Height : 400 pixels
Display aspect ratio : 16:9
Frame rate : 25.000 FPS
Color space : YUV
Chroma subsampling : 4:2:0
Bit depth : 8 bits
Scan type : Progressive
Compression mode : Lossy
Bits/(Pixel*Frame) : 0.221
Stream size : 535 MiB (80%)
Writing library : XviD 73
Audio
ID : 1
Format : AC-3
Format/Info : Audio Coding 3
Commercial name : Dolby Digital
Codec ID : 2000
Duration : 46 min 55 s
Bit rate mode : Constant
Bit rate : 384 kb/s
Channel(s) : 6 channels
Channel layout : L R C LFE Ls Rs
Sampling rate : 48.0 kHz
Frame rate : 31.250 FPS (1536 SPF)
Compression mode : Lossy
Stream size : 129 MiB (19%)
Alignment : Split across interleaves
Interleave, duration : 40 ms (1.00 video frame)
Interleave, preload duration : 500 ms
Service kind : Complete Main

Внимание! Раздача ведётся путём добавления новых серий

Раздача ведётся путём добавления новых серий, при каждом добавлении создаётся новый торрент. Чтобы начать докачку новой серии, пользователям необходимо сделать следующее:
- Остановить скачивание.
- Удалить старый торрент у себя из клиента (старые серии удалять не надо).
- Скачать новый торрент и запустить его у себя в клиенте вместо старого, при этом указать клиенту путь в старую папку куда и должно происходить скачивание новых серий.
Ваш клиент при этом должен произвести хеширование (проверку) старой папки (если не производит сам - помогите ему сделать это), и будет докачивать только те серии которых у вас ещё нет. Старые серии при этом не удаляются, а продолжают раздаваться!
Релиз от:

Release was prepared by RG Files-x

Related releases "Под неласковым небом" (1):
Added Topic title Size
20 Apr 24  Под неласковым небом [1-4 серии из 4] (2023) WEB-DLRip-AVC от Files-x 2.57 GB
Find all related releases Под неласковым небом
[Profile] [PM]
Display posts:    
Reply to topic

Current time is: 31-May 02:24

All times are UTC + 3



You cannot post new topics in this forum
You cannot reply to topics in this forum
You cannot edit your posts in this forum
You cannot delete your posts in this forum
You cannot vote in polls in this forum
You cannot attach files in this forum
You cannot download files in this forum