Бородатый нянь [1-4 серии из 4] (2024) WEB-DL 720p от Files-х

Reply to topic
 
Author Message

patriot67 ®

Gender: Male

Longevity: 4 years 6 months

Posts: 302

Post 20-Apr-2024 15:57

[Quote]

Бородатый нянь Год выпуска: 2024
Жанр: Мелодрама, драма
Выпущено: Россия, Кинокомпания "Феникс-фильм"
Режиссер: Игорь Мужжухин
В ролях: Наталья Ноздрина, Игорь Стам, Алексей Панфилов, Анна Куклина, Марина Куделинская, Климентий Кривоносенко, Андрей Петелько, Юлия Малинина, Андрей Перунов, Кристина Пономарева
О фильме: Аня вместе с мужем Игорем владеет уникальным кафе. Пока она творит магию на кухне, он занимается юридической и финансовой работой. У них двое несносных сыновей, за которыми приглядывает свекровь. Казалось бы, не жизнь, а мечта. Но после измены мужа ей приходится взять на себя ответственность за бизнес и детей. Няни, которых Аня ищет, не подходят ей до тех пор, пока она не встречает Максима – в прошлом военного и учителя ОБЖ, а теперь – воспитателя. Или, как буквально сразу окрестили его дети, – «бородатого няня». Им не сразу удается поладить, однако вскоре Максим помогает подчинить жизнь графику и порядку не только детям, но и самой Ане. Игорь между тем отнимает бизнес. Она готова опустить руки, но рядом с ней – бородатый нянь, который предлагает идею для нового дела. Благодаря поддержке Максима и детей Анна открывает новый бизнес и делает его успешным. Но в ее жизнь возвращается Игорь, которого бросила любовница, забрав у него все.
Качество: WEB-DL 720p
Видео: MPEG-4 AVC, ~ 2000 Кбит/с, 1280x720, 25 кадр/с
Аудио: AC3, 2 ch, 192 Кбит/с
Продолжительность: 4 x ~ 00:48:50
Перевод: Не требуется
Cубтитры: Нет

Скриншоты



MediaInfo

General
Unique ID : 201199365281922121135048877677835555759 (0x975D9696D1ACB5B9AA90D344723193AF)
Complete name : D:\films\ Бородатый нянь.2024.WEB-DL 720p.Files-x\ 01. Бородатый нянь.2024.WEB-DL 720p.Files-x.mkv
Format : Matroska
Format version : Version 4
File size : 762 MiB
Duration : 48 min 50 s
Overall bit rate : 2 182 kb/s
Frame rate : 25.000 FPS
Encoded date : 2024-04-20 10:11:30 UTC
Writing application : mkvmerge v7.8.0 ('River Man') 32bit built on Apr 3 2015 12:11:22
Writing library : libebml v1.3.1 + libmatroska v1.4.2
Video
ID : 1
Format : AVC
Format/Info : Advanced Video Codec
Format profile : High@L4.1
Format settings : CABAC / 4 Ref Frames
Format settings, CABAC : Yes
Format settings, Reference frames : 4 frames
Format settings, GOP : M=4, N=50
Codec ID : V_MPEG4/ISO/AVC
Duration : 48 min 50 s
Bit rate : 1 988 kb/s
Width : 1 280 pixels
Height : 720 pixels
Display aspect ratio : 16:9
Active Format Description : Full frame 16:9 image
Frame rate mode : Constant
Frame rate : 25.000 FPS
Standard : PAL
Color space : YUV
Chroma subsampling : 4:2:0
Bit depth : 8 bits
Scan type : Progressive
Bits/(Pixel*Frame) : 0.086
Stream size : 695 MiB (91%)
Default : Yes
Forced : No
Color range : Limited
Color primaries : BT.709
Transfer characteristics : BT.709
Matrix coefficients : BT.709
Audio
ID : 2
Format : AC-3
Format/Info : Audio Coding 3
Commercial name : Dolby Digital
Codec ID : A_AC3
Duration : 48 min 50 s
Bit rate mode : Constant
Bit rate : 192 kb/s
Channel(s) : 2 channels
Channel layout : L R
Sampling rate : 48.0 kHz
Frame rate : 31.250 FPS (1536 SPF)
Compression mode : Lossy
Stream size : 67.1 MiB (9%)
Service kind : Complete Main
Default : Yes
Forced : No

Раздача ведётся путём добавления новых серий

Внимание! Раздача ведётся путём добавления новых серий; при каждом добавлении создаётся новый торрент.
Чтобы начать докачку новой серии, пользователям необходимо сделать следующее:
1. Остановить скачивание;
2. Удалить старый торрент у себя из клиента (старые серии удалять не надо);
3. Скачать новый торрент и запустить его у себя в клиенте вместо старого, при этом указать клиенту путь в старую папку куда и должно происходить скачивание новых серий. Ваш клиент при этом должен произвести хеширование (проверку) старой папки и будет докачивать только те серии, которых у вас ещё нет. Старые серии при этом не удаляются, а продолжают раздаваться! Eсли вы уже удалили старые серии, то предотвратить повторную закачку старых серий можно, отжав галочку в соответствующих местах при запуске нового торрента.
Релиз от:
[Profile] [PM]
Display posts:    
Reply to topic

Current time is: 31-May 02:23

All times are UTC + 3



You cannot post new topics in this forum
You cannot reply to topics in this forum
You cannot edit your posts in this forum
You cannot delete your posts in this forum
You cannot vote in polls in this forum
You cannot attach files in this forum
You cannot download files in this forum