Мосгаз. Дело №10: Метроном [1-8 серии из 8] (2024) WEBRip от Files-x

Reply to topic
 
Author Message

patriot67 ®

Gender: Male

Longevity: 4 years 6 months

Posts: 302

Post 29-Apr-2024 18:11

[Quote]

Мосгаз. Дело №10. Метроном Год выпуска: 2024
Жанр: Детектив
Выпущено: Россия, Кинокомпания "Студия Русский проект", Okko Studios
Режиссер: Евгений Звездаков
В ролях: Марина Александрова, Алексей Бардуков, Александр Голубев, Андрей Мерзликин, Игорь Золотовицкий, Сергей Шакуров, Фёдор Лавров, Артур Ваха, Эдуард Чекмазов, Андрей Смоляков
О фильме: 1982 год. Соня Тимофеева, Алексей Гаркуша и Егор Осадчий теперь сами по себе, а амбициозный майор Виктор Ковалев пытается занять пустующее место руководителя оперативной группы. Тем временем в Москве прямо во время выступления погибает известный эстрадный артист и сотрудник Москонцерта Андрей Гринякин. Все указывает на то, что кто-то пытается «замять» это дело. Соня Тимофеева в тайне от всех начинает вести свое расследование. Понять, что происходит в Москонцерте, пытается и Ковалев. Очевидно, что подпольную деятельность Москонцерта покрывают влиятельные люди. События разворачиваются стремительно: один за другим погибают участники преступной схемы директора Москонцерта Ольшевского.

Качество: WEBRip
Видео: XviD, ~ 1600 Кбит/с, 720x400, 25 кадр/с
Аудио: AC3, 2 ch, 192 Кбит/с
Продолжительность: 8 х ~ 00:50:34
Перевод: Не требуется
Cубтитры: Русские

Скриншоты




MediaInfo

General
Complete name : D:\films\Мосгаз. Дело №10. Метроном.S10.2024.WEB-DLRip.Files-x\01. Мосгаз. Дело №10. Метроном.S10.2024.WEB-DLRip.Files-x.avi
Format : AVI
Format/Info : Audio Video Interleave
Format settings : BitmapInfoHeader / WaveFormatEx
File size : 648 MiB
Duration : 50 min 34 s
Overall bit rate : 1 793 kb/s
Frame rate : 25.000 FPS
Writing application : VirtualDubMod 1.5.10.3 | www.virtualdub-fr.org || (build 2550/release)
Writing library : VirtualDubMod build 2550/release
Video
ID : 0
Format : MPEG-4 Visual
Format profile : Advanced Simple@L5
Format settings : BVOP1 / Custom Matrix
Format settings, BVOP : 1
Format settings, QPel : No
Format settings, GMC : No warppoints
Format settings, Matrix : Custom
Codec ID : XVID
Codec ID/Hint : XviD
Duration : 50 min 34 s
Bit rate : 1 591 kb/s
Width : 720 pixels
Height : 400 pixels
Display aspect ratio : 16:9
Frame rate : 25.000 FPS
Color space : YUV
Chroma subsampling : 4:2:0
Bit depth : 8 bits
Scan type : Progressive
Compression mode : Lossy
Bits/(Pixel*Frame) : 0.221
Stream size : 575 MiB (89%)
Writing library : XviD 73
Audio
ID : 1
Format : AC-3
Format/Info : Audio Coding 3
Commercial name : Dolby Digital
Codec ID : 2000
Duration : 50 min 34 s
Bit rate mode : Constant
Bit rate : 192 kb/s
Channel(s) : 2 channels
Channel layout : L R
Sampling rate : 48.0 kHz
Frame rate : 31.250 FPS (1536 SPF)
Compression mode : Lossy
Stream size : 69.4 MiB (11%)
Alignment : Split across interleaves
Interleave, duration : 40 ms (1.00 video frame)
Interleave, preload duration : 500 ms
Service kind : Complete Main

Внимание! Раздача ведётся путём добавления новых серий

Раздача ведётся путём добавления новых серий, при каждом добавлении создаётся новый торрент. Чтобы начать докачку новой серии, пользователям необходимо сделать следующее:
- Остановить скачивание.
- Удалить старый торрент у себя из клиента (старые серии удалять не надо).
- Скачать новый торрент и запустить его у себя в клиенте вместо старого, при этом указать клиенту путь в старую папку куда и должно происходить скачивание новых серий.
Ваш клиент при этом должен произвести хеширование (проверку) старой папки (если не производит сам - помогите ему сделать это), и будет докачивать только те серии которых у вас ещё нет. Старые серии при этом не удаляются, а продолжают раздаваться!
Релиз от:

Release was prepared by RG Files-x

Related releases "Мосгаз" (10):
Added Topic title Size
22 May 24  МосГаз [1-10 сезон: 1-82 серии из 82] (2012-2024) WEB-DLRip, WEBRip от Generalfilm | КПК 2 15.66 GB
15 May 24  Мосгаз. Дело №10: Метроном [10 сезон: 1-8 серия из 8] (2024) WEBRip-AVC от Files-x 1 5.03 GB
5 May 23  Мосгаз. Последнее дело майора Черкасова [9 сезон: 1-8 серия из 8] (2023) WEBRip-AVC от Files-x 5.08 GB
22 Nov 21  МосГаз. Дело № 8. Западня [8 сезон: 1-8 серии из 8] (2021) WEB-DLRip от Files-x 5.05 GB
22 Nov 21  МосГаз. Дело № 8. Западня [8 сезон: 1-8 серии из 8] (2021) WEB-DLRip-AVC от Files-x 5.05 GB
22 Nov 21  МосГаз. Дело № 8. Западня [8 сезон: 1-8 серии из 8] (2021) WEB-DLRip-AVC от Files-x 5.04 GB
23 Oct 20  Мосгаз. Новое дело майора Черкасова. Катран [1-8 серии из 8] (2020) WEB-DLRip от Files-x 5.01 GB
23 Oct 20  МосГаз (Коллекция) [1-6 части: 1-50 серии из 50] (2012-2019) WEB-DL 1080p 88.71 GB
23 Oct 20  Мосгаз. Новое дело майора Черкасова. Катран [1-8 серия из 8] (2020) WEB-DLRip-AVC от Files-x 1 4.99 GB
23 Oct 20  Мосгаз. Новое дело майора Черкасова. Катран [1-8 серии из 8] (2020) WEB-DLRip от GeneralFilm 4.35 GB
Find all related releases Мосгаз
[Profile] [PM]

patriot67 ®

Gender: Male

Longevity: 4 years 6 months

Posts: 302

Post 08-May-2024 18:49 (after 9 days)

[Quote]

В 1-ю - 4-ю серии добавлены - Субтитры
Внимание 5-6 серии временно без русских субтитров!
Будут добавлены по мере появления на ресурсе
[Profile] [PM]
Display posts:    
Reply to topic

Current time is: 31-May 02:24

All times are UTC + 3



You cannot post new topics in this forum
You cannot reply to topics in this forum
You cannot edit your posts in this forum
You cannot delete your posts in this forum
You cannot vote in polls in this forum
You cannot attach files in this forum
You cannot download files in this forum