ВИА Суперстар [1 сезон: 1-6 выпуск из 6] (2024) WEBRip 720p от Files-x

Reply to topic
 
Author Message

bond74 ®

Gender: Male

Longevity: 5 years 7 months

Posts: 2421

Post 13-May-2024 08:11

[Quote]

ВИА Суперстар Год выпуска: 2024
Жанр: ТВ-шоу, музыкальный, развлекательный
Выпущено: Россия, НТВ
Ведущий: Лолита Милявская, Вадим Такменев
Описание: На НТВ – премьера нового оригинального музыкального шоу «ВИА Суперстар!». За звание «суперстаров» будут бороться музыкальные коллективы, пик популярности которых пришёлся на 80–90-е и нулевые: это группы «Вирус!», «Форум», «Божья коровка», «Чи-Ли» и «Балаган Лимитед», золотой состав группы «Стрелки», а также ВИА «Лейся, песня!» и «Белорусские легенды». В каждом выпуске им предстоит предстать в новом амплуа и выступить в разных жанрах, победителем станет тот, кто по итогам всех выпусков наберет наибольшее количество баллов. Оценивать выступления конкурсантов будет слаженная команда судей, в которую вошли Лера Кудрявцева, Сергей Соседов, Наташа Королёва и Стас Пьеха. Ведущие музыкального проекта – Вадим Такменёв и Лолита.
Качество: WEBRip 720p
Видео: MPEG-4 AVC, ~ 4100 Кбит/с, 1280x720
Аудио: AC3, 2 ch, 192 Кбит/с
Продолжительность: 6 х ~ 02:30:00
Перевод: Не требуется
Субтитры: Нет

Скриншоты



MediaInfo

General
Unique ID : 189593384688021046622622605024599035738 (0x8EA25B911A3F112EB949B58F09514F5A)
Complete name : D:\films\ВИА Суперстар.2024.WEB-DL 720p.Files-x\01. ВИА Суперстар.2024.WEB-DL 720p.Files-x.mkv
Format : Matroska
Format version : Version 4
File size : 4.41 GiB
Duration : 2 h 27 min
Overall bit rate mode : Variable
Overall bit rate : 4 283 kb/s
Frame rate : 25.000 FPS
Encoded date : 2024-05-13 03:53:43 UTC
Writing application : mkvmerge v7.8.0 ('River Man') 32bit built on Apr 3 2015 12:11:22
Writing library : libebml v1.3.1 + libmatroska v1.4.2
Video
ID : 1
Format : AVC
Format/Info : Advanced Video Codec
Format profile : High@L4.1
Format settings : CABAC / 4 Ref Frames
Format settings, CABAC : Yes
Format settings, Reference frames : 4 frames
Format settings, GOP : M=4, N=50
Codec ID : V_MPEG4/ISO/AVC
Duration : 2 h 27 min
Bit rate mode : Variable
Bit rate : 4 089 kb/s
Maximum bit rate : 5 000 kb/s
Width : 1 280 pixels
Height : 720 pixels
Display aspect ratio : 16:9
Frame rate mode : Constant
Frame rate : 25.000 FPS
Color space : YUV
Chroma subsampling : 4:2:0
Bit depth : 8 bits
Scan type : Progressive
Bits/(Pixel*Frame) : 0.177
Stream size : 4.21 GiB (95%)
Default : Yes
Forced : No
Color range : Limited
Color primaries : BT.709
Transfer characteristics : BT.709
Matrix coefficients : BT.709
Audio
ID : 2
Format : AC-3
Format/Info : Audio Coding 3
Commercial name : Dolby Digital
Codec ID : A_AC3
Duration : 2 h 27 min
Bit rate mode : Constant
Bit rate : 192 kb/s
Channel(s) : 2 channels
Channel layout : L R
Sampling rate : 44.1 kHz
Frame rate : 28.711 FPS (1536 SPF)
Compression mode : Lossy
Delay relative to video : -120 ms
Stream size : 202 MiB (4%)
Service kind : Complete Main
Default : Yes
Forced : No

Внимание! Раздача ведётся путём добавления новых серий

Раздача ведётся путём добавления новых серий, при каждом добавлении создаётся новый торрент. Чтобы начать докачку новой серии, пользователям необходимо сделать следующее:
- Остановить скачивание.
- Удалить старый торрент у себя из клиента (старые серии удалять не надо).
- Скачать новый торрент и запустить его у себя в клиенте вместо старого, при этом указать клиенту путь в старую папку куда и должно происходить скачивание новых серий.
Ваш клиент при этом должен произвести хеширование (проверку) старой папки (если не производит сам - помогите ему сделать это), и будет докачивать только те серии которых у вас ещё нет. Старые серии при этом не удаляются, а продолжают раздаваться!
Релиз от:

Release was prepared by RG Files-x

Related releases "ВИА Суперстар" (1):
Added Topic title Size
17 Jun 24  ВИА Суперстар [1-6 серия из 6] (2024) WEBRip от Files-x 11.51 GB
Find all related releases ВИА Суперстар
[Profile] [PM]
Display posts:    
Reply to topic

Current time is: 24-Jun 22:30

All times are UTC + 3



You cannot post new topics in this forum
You cannot reply to topics in this forum
You cannot edit your posts in this forum
You cannot delete your posts in this forum
You cannot vote in polls in this forum
You cannot attach files in this forum
You cannot download files in this forum