ВИА Суперстар [1-6 серия из 6] (2024) WEBRip от Files-x

Reply to topic
 
Author Message

bond74 ®

Gender: Male

Longevity: 5 years 8 months

Posts: 2440

Post 17-May-2024 17:29

[Quote]

ВИА Суперстар
Год выпуска: 2024
Жанр: ТВ-шоу, музыкальный, вокальный, развлекательный
Выпущено: Россия, НТВ
Ведущий: Лолита Милявская, Вадим Такменев
О фильме: На НТВ – премьера нового оригинального музыкального шоу «ВИА Суперстар!». За звание «суперстаров» будут бороться музыкальные коллективы, пик популярности которых пришёлся на 80–90-е и нулевые: это группы «Вирус!», «Форум», «Божья коровка», «Чи-Ли» и «Балаган Лимитед», золотой состав группы «Стрелки», а также ВИА «Лейся, песня!» и «Белорусские легенды». В каждом выпуске им предстоит предстать в новом амплуа и выступить в разных жанрах, победителем станет тот, кто по итогам всех выпусков наберет наибольшее количество баллов. Оценивать выступления конкурсантов будет слаженная команда судей, в которую вошли Лера Кудрявцева, Сергей Соседов, Наташа Королёва и Стас Пьеха. Ведущие музыкального проекта – Вадим Такменёв и Лолита.
Качество: WEBRip
Видео: XviD, ~ 1600 Кбит/с, 720x400, 25 кадр/с
Аудио: AC3, 2 ch, 192 Кбит/с
Продолжительность:1 х ~ 02:30:00
Перевод: Не требуется
Субтитры: Нет

Скриншоты




MediaInfo

General
Complete name : D:\films\ВИА Суперстар.2024. WEB-DLRip.Files-x\01. ВИА Суперстар.2024. WEB-DLRip.Files-x.avi
Format : AVI
Format/Info : Audio Video Interleave
Format settings : BitmapInfoHeader / WaveFormatEx
File size : 1.86 GiB
Duration : 2 h 27 min
Overall bit rate : 1 802 kb/s
Frame rate : 25.000 FPS
Writing application : VirtualDubMod 1.5.10.3 | www.virtualdub-fr.org || (build 2550/release)
Writing library : VirtualDubMod build 2550/release
Video
ID : 0
Format : MPEG-4 Visual
Format profile : Advanced Simple@L5
Format settings : BVOP1 / Custom Matrix
Format settings, BVOP : 1
Format settings, QPel : No
Format settings, GMC : No warppoints
Format settings, Matrix : Custom
Codec ID : XVID
Codec ID/Hint : XviD
Duration : 2 h 27 min
Bit rate : 1 600 kb/s
Width : 720 pixels
Height : 400 pixels
Display aspect ratio : 16:9
Frame rate : 25.000 FPS
Color space : YUV
Chroma subsampling : 4:2:0
Bit depth : 8 bits
Scan type : Progressive
Compression mode : Lossy
Bits/(Pixel*Frame) : 0.222
Stream size : 1.65 GiB (89%)
Writing library : XviD 73
Audio
ID : 1
Format : AC-3
Format/Info : Audio Coding 3
Commercial name : Dolby Digital
Codec ID : 2000
Duration : 2 h 27 min
Bit rate mode : Constant
Bit rate : 192 kb/s
Channel(s) : 2 channels
Channel layout : L R
Sampling rate : 48.0 kHz
Frame rate : 31.250 FPS (1536 SPF)
Compression mode : Lossy
Stream size : 202 MiB (11%)
Alignment : Split across interleaves
Interleave, duration : 40 ms (1.00 video frame)
Interleave, preload duration : 500 ms
Service kind : Complete Main

Раздача ведётся путём добавления новых серий

Внимание! Раздача ведётся путём добавления новых серий; при каждом добавлении создаётся новый торрент.
Чтобы начать докачку новой серии, пользователям необходимо сделать следующее:
1. Остановить скачивание;
2. Удалить старый торрент у себя из клиента (старые серии удалять не надо);
3. Скачать новый торрент и запустить его у себя в клиенте вместо старого, при этом указать клиенту путь в старую папку куда и должно происходить скачивание новых серий. Ваш клиент при этом должен произвести хеширование (проверку) старой папки и будет докачивать только те серии, которых у вас ещё нет. Старые серии при этом не удаляются, а продолжают раздаваться! Eсли вы уже удалили старые серии, то предотвратить повторную закачку старых серий можно, отжав галочку в соответствующих местах при запуске нового торрента.
Релиз от:

Release was prepared by RG Files-x

[Profile] [PM]
Display posts:    
Reply to topic

Current time is: 23-Jul 17:23

All times are UTC + 3



You cannot post new topics in this forum
You cannot reply to topics in this forum
You cannot edit your posts in this forum
You cannot delete your posts in this forum
You cannot vote in polls in this forum
You cannot attach files in this forum
You cannot download files in this forum