Запасный выход [1 сезон: 1-3 фильм из 3] (2020) HDTV 1080р от Files-x

Reply to topic
 
Author Message

Nicodem ®

Gender: Male

Longevity: 5 years 6 months

Posts: 1431

Post 15-May-2024 02:22

[Quote]

Запасный выход
Год выпуска: 2020
Жанр: Детектив, комедия, медицина
Выпущено: Россия, ВайТ Медиа по заказу НТВ
Режиссер: Сергей Чекалов
В ролях: Юрий Стоянов, Роман Мадянов, Даниил Вахрушев, Юлия Галкина, Сергей Погосян, Олег Алмазов, Юлия Полынская, Александр Андриенко, Алексей Дмитриев
О фильме: В судебно-медицинском морге провинциальной больницы работают два санитара – бывший уголовник-рецидивист Пал Палыч Шишко (Юрий Стоянов) и бывший оперуполномоченный Николай Иванович Кедров (Роман Мадянов). Они совершенно разные, недолюбливают друг друга, а на людях общаются подчёркнуто официально. Их объединяет только работа. Однажды в морге появляется молодой следователь – старший лейтенант Дмитрий Сайкин (Данил Вахрушев). В управлении его считают неудачником и вешают на него самые безнадёжные дела. Но всё меняется, когда Сайкин становится свидетелем того, как Кедров и Шишко несколькими фразами разбивают выводы эксперта и не только устанавливают точное место, время и способ убийства, но и детально описывают внешность убийцы, назвав в конце его имя. А лавры отдают Сайкину...

Качество: HDTV 1080р
Видео: MPEG-4 AVC, ~ 6502 Кбит/с, 1920x1080, 25 кадр/с
Аудио: MP2, 2 ch, 192 Кбит/с
Продолжительность: 3 x ~ 01:05:10
Перевод: Не требуется
Cубтитры: нет

Скриншоты



MediaInfo

General
ID : 1 (0x1)
Complete name : C:01.Запасный выход.s01.E01 (Дело № 1 Отелло).(2020).HDTV.(1080р).by.Nicodem.Files-x.ts
Format : MPEG-TS
File size : 3.21 GiB
Duration : 1h 5mn
Overall bit rate : 7 044 Kbps
Maximum Overall bit rate : 35.5 Mbps
Video
ID : 4113 (0x1011)
Menu ID : 1 (0x1)
Format : AVC
Format/Info : Advanced Video Codec
Format profile : High@L4.1
Format settings, CABAC : No
Format settings, ReFrames : 3 frames
Codec ID : 27
Duration : 1h 5mn
Bit rate mode : Variable
Bit rate : 6 502 Kbps
Maximum bit rate : 40.0 Mbps
Width : 1 920 pixels
Height : 1 080 pixels
Display aspect ratio : 16:9
Frame rate : 25.000 fps
Color space : YUV
Chroma subsampling : 4:2:0
Bit depth : 8 bits
Scan type : Progressive
Bits/(Pixel*Frame) : 0.125
Stream size : 2.96 GiB (92%)
Language : English
Audio
ID : 4352 (0x1100)
Menu ID : 1 (0x1)
Format : MPEG Audio
Format version : Version 1
Format profile : Layer 2
Codec ID : 4
Duration : 1h 5mn
Bit rate mode : Constant
Bit rate : 192 Kbps
Channel(s) : 2 channels
Sampling rate : 48.0 KHz
Compression mode : Lossy
Stream size : 89.5 MiB (3%)

Содержание

Дело № 1 Отелло
Дело № 2 Да Винчи
Дело № 3 Сирано Де Бержерак

Раздача ведётся путём добавления новых серий

Внимание! Раздача ведётся путём добавления новых серий; при каждом добавлении создаётся новый торрент.
Чтобы начать докачку новой серии, пользователям необходимо сделать следующее:
1. Остановить скачивание;
2. Удалить старый торрент у себя из клиента (старые серии удалять не надо);
3. Скачать новый торрент и запустить его у себя в клиенте вместо старого, при этом указать клиенту путь в старую папку куда и должно происходить скачивание новых серий. Ваш клиент при этом должен произвести хеширование (проверку) старой папки и будет докачивать только те серии, которых у вас ещё нет. Старые серии при этом не удаляются, а продолжают раздаваться! Eсли вы уже удалили старые серии, то предотвратить повторную закачку старых серий можно, отжав галочку в соответствующих местах при запуске нового торрента.
Релиз от:

Release was prepared by RG Files-x

[Profile] [PM]
Display posts:    
Reply to topic

Current time is: 31-May 02:13

All times are UTC + 3



You cannot post new topics in this forum
You cannot reply to topics in this forum
You cannot edit your posts in this forum
You cannot delete your posts in this forum
You cannot vote in polls in this forum
You cannot attach files in this forum
You cannot download files in this forum