Запасный выход [1 сезон: 1-4 серии из 4] (2019-2020) WEBRip от Files-x

Reply to topic
 
Author Message

bond74 ®

Gender: Male

Longevity: 5 years 6 months

Posts: 2404

Post 15-May-2024 11:18

[Quote]

Запасный выход
Год выпуска: 2019-2020
Жанр: Детектив, комедия, медицина
Выпущено: Россия, Кинокомпания "ВайТ Медиа" по заказу НТВ
Режиссер: Сергей Чекалов
В ролях: Юрий Стоянов, Роман Мадянов, Даниил Вахрушев, Юлия Галкина, Сергей Погосян, Олег Алмазов, Юлия Полынская, Александр Андриенко, Алексей Дмитриев
О фильме: В судебно-медицинском морге провинциальной больницы работают два санитара – бывший уголовник-рецидивист Пал Палыч Шишко (Юрий Стоянов) и бывший оперуполномоченный Николай Иванович Кедров (Роман Мадянов). Они совершенно разные, недолюбливают друг друга, а на людях общаются подчёркнуто официально. Их объединяет только работа. Однажды в морге появляется молодой следователь – старший лейтенант Дмитрий Сайкин (Данил Вахрушев). В управлении его считают неудачником и вешают на него самые безнадёжные дела. Но всё меняется, когда Сайкин становится свидетелем того, как Кедров и Шишко несколькими фразами разбивают выводы эксперта и не только устанавливают точное место, время и способ убийства, но и детально описывают внешность убийцы, назвав в конце его имя. А лавры отдают Сайкину...

Качество: WEBRip
Видео: XviD, ~ 1600 Кбит/с, 720x400, 25 кадр/с
Аудио: AC3, 2 ch, 192 Кбит/с
Продолжительность: 4 х ~ 00:49:16
Перевод: Не требуется
Cубтитры: нет

Скриншоты




MediaInfo

General
Complete name : D:\films\Запасный выход . 2024 . WEB-DLRip.Files-x\02. Запасный выход . 2024 WEB-DLRip.Files-x.avi
Format : AVI
Format/Info : Audio Video Interleave
Format settings : BitmapInfoHeader / WaveFormatEx
File size : 657 MiB
Duration : 51 min 21 s
Overall bit rate : 1 790 kb/s
Frame rate : 25.000 FPS
Writing application : VirtualDubMod 1.5.10.3 | www.virtualdub-fr.org || (build 2550/release)
Writing library : VirtualDubMod build 2550/release
Video
ID : 0
Format : MPEG-4 Visual
Format profile : Advanced Simple@L5
Format settings : BVOP1 / Custom Matrix
Format settings, BVOP : 1
Format settings, QPel : No
Format settings, GMC : No warppoints
Format settings, Matrix : Custom
Codec ID : XVID
Codec ID/Hint : XviD
Duration : 51 min 21 s
Bit rate : 1 588 kb/s
Width : 720 pixels
Height : 400 pixels
Display aspect ratio : 16:9
Frame rate : 25.000 FPS
Color space : YUV
Chroma subsampling : 4:2:0
Bit depth : 8 bits
Scan type : Progressive
Compression mode : Lossy
Bits/(Pixel*Frame) : 0.221
Stream size : 583 MiB (89%)
Writing library : XviD 73
Audio
ID : 1
Format : AC-3
Format/Info : Audio Coding 3
Commercial name : Dolby Digital
Codec ID : 2000
Duration : 51 min 21 s
Bit rate mode : Constant
Bit rate : 192 kb/s
Channel(s) : 2 channels
Channel layout : L R
Sampling rate : 48.0 kHz
Frame rate : 31.250 FPS (1536 SPF)
Compression mode : Lossy
Stream size : 70.5 MiB (11%)
Alignment : Split across interleaves
Interleave, duration : 40 ms (1.00 video frame)
Interleave, preload duration : 500 ms
Service kind : Complete Main

Раздача ведётся путём добавления новых серий

Внимание! Раздача ведётся путём добавления новых серий; при каждом добавлении создаётся новый торрент.
Чтобы начать докачку новой серии, пользователям необходимо сделать следующее:
1. Остановить скачивание;
2. Удалить старый торрент у себя из клиента (старые серии удалять не надо);
3. Скачать новый торрент и запустить его у себя в клиенте вместо старого, при этом указать клиенту путь в старую папку куда и должно происходить скачивание новых серий. Ваш клиент при этом должен произвести хеширование (проверку) старой папки и будет докачивать только те серии, которых у вас ещё нет. Старые серии при этом не удаляются, а продолжают раздаваться! Eсли вы уже удалили старые серии, то предотвратить повторную закачку старых серий можно, отжав галочку в соответствующих местах при запуске нового торрента.
Релиз от:

Release was prepared by RG Files-x

[Profile] [PM]
Display posts:    
Reply to topic

Current time is: 31-May 02:12

All times are UTC + 3



You cannot post new topics in this forum
You cannot reply to topics in this forum
You cannot edit your posts in this forum
You cannot delete your posts in this forum
You cannot vote in polls in this forum
You cannot attach files in this forum
You cannot download files in this forum