Калимба [1 сезон: 1-6 серии из 8] (2024) WEBRip от Files-x

Reply to topic
 
Author Message

patriot67 ®

Gender: Male

Longevity: 4 years 7 months

Posts: 310

Post 16-May-2024 20:17

[Quote]

Калимба Год выпуска: 2024
Жанр: Драма, детектив
Выпущено: Россия, Кинокомпания "Норм Продакшн", Okkо
Режиссер: Нурбек Эген
В ролях: Фёдор Бондарчук, Алёна Михайлова, Сергей Гармаш, Пётр Скворцов, Елизавета Шакира, Сергей Горошко, Константин Плотников (II), Юлия Волкова, Сергей Городничий, София Сучкова, Михаил Хмуров, Камилла Келлер, Тимофей Ольков, Людмила Юлова, Елена Радевич
О фильме: Амбициозный профессор психиатрии Виктор Мещерский проводит опасный психологический эксперимент, в рамках которого под ложным предлогом запирает в подвале жертв и их обидчиков, скрывая свои истинные цели. Последующее расследование расскажет о настоящих мотивах профессора, и свяжет воедино запутанные истории всех участников жестокого эксперимента.

Качество: WEBRip
Видео: XviD, ~ 1400 Кбит/с, 720x304, 25 кадр/с
Аудио: AC3, 6 ch, 384 Кбит/с
Продолжительность: 4 x ~ 00:46:00
Перевод: Не требуется
Cубтитры: Русские

Скриншоты




MediaInfo

General
Complete name : C:\films\Калимба.2024.WEB-DLRip.Files-x\01. Калимба.2024.WEB-DLRip.Files-x.avi
Format : AVI
Format/Info : Audio Video Interleave
Format settings : BitmapInfoHeader / WaveFormatEx
File size : 574 MiB
Duration : 46 min 8 s
Overall bit rate : 1 738 kb/s
Frame rate : 25.000 FPS
Writing application : VirtualDubMod 1.5.10.3 | www.virtualdub-fr.org || (build 2550/release)
Writing library : VirtualDubMod build 2550/release
Video
ID : 0
Format : MPEG-4 Visual
Format profile : Advanced Simple@L5
Format settings : BVOP1 / Custom Matrix
Format settings, BVOP : 1
Format settings, QPel : No
Format settings, GMC : No warppoints
Format settings, Matrix : Custom
Codec ID : XVID
Codec ID/Hint : XviD
Duration : 46 min 8 s
Bit rate : 1 345 kb/s
Width : 720 pixels
Height : 304 pixels
Display aspect ratio : 2.35:1
Frame rate : 25.000 FPS
Color space : YUV
Chroma subsampling : 4:2:0
Bit depth : 8 bits
Scan type : Progressive
Compression mode : Lossy
Bits/(Pixel*Frame) : 0.246
Stream size : 444 MiB (77%)
Writing library : XviD 73
Audio
ID : 1
Format : AC-3
Format/Info : Audio Coding 3
Commercial name : Dolby Digital
Codec ID : 2000
Duration : 46 min 8 s
Bit rate mode : Constant
Bit rate : 384 kb/s
Channel(s) : 6 channels
Channel layout : L R C LFE Ls Rs
Sampling rate : 48.0 kHz
Frame rate : 31.250 FPS (1536 SPF)
Compression mode : Lossy
Stream size : 127 MiB (22%)
Alignment : Split across interleaves
Interleave, duration : 40 ms (1.00 video frame)
Interleave, preload duration : 500 ms
Service kind : Complete Main

Внимание! Раздача ведётся путём добавления новых серий

Раздача ведётся путём добавления новых серий, при каждом добавлении создаётся новый торрент. Чтобы начать докачку новой серии, пользователям необходимо сделать следующее:
- Остановить скачивание.
- Удалить старый торрент у себя из клиента (старые серии удалять не надо).
- Скачать новый торрент и запустить его у себя в клиенте вместо старого, при этом указать клиенту путь в старую папку куда и должно происходить скачивание новых серий.
Ваш клиент при этом должен произвести хеширование (проверку) старой папки (если не производит сам - помогите ему сделать это), и будет докачивать только те серии которых у вас ещё нет. Старые серии при этом не удаляются, а продолжают раздаваться!
Релиз от:

Release was prepared by RG Files-x

[Profile] [PM]
Display posts:    
Reply to topic

Current time is: 17-Jun 19:33

All times are UTC + 3



You cannot post new topics in this forum
You cannot reply to topics in this forum
You cannot edit your posts in this forum
You cannot delete your posts in this forum
You cannot vote in polls in this forum
You cannot attach files in this forum
You cannot download files in this forum