Один шанс на троих (Ювенальная история) [1-8 серии из 8] (2021) HDTV 1080p от Files-x

Reply to topic
 
Author Message

Nicodem ®

Gender: Male

Longevity: 5 years 7 months

Posts: 1439

Post 10-Jun-2024 22:40

[Quote]

Один шанс на троих (Ювенальная история)
Год выпуска: 2021
Жанр: Детектив, драма
Выпущено: Россия, Продюсерский центр Иван, Киностудия КИТ
Режиссер: Руслан Паушу
В ролях: Сергей Марин, Мария Лисовая, Кирилл Полухин, Максим Костромыкин, Ольга Портретова, Петар Зекавица, Марк-Малик Мурашкин, Надежда Некрасова, Антон Пулит, Артур Харитоненко, Мирон Лебедев
О фильме: История Олега и Яны началась 10 лет назад: двадцатилетние влюбленные живут в небольшом пограничном городе и собираются пожениться. Пока парень не узнает, что девушка изменила ему с заезжим финским бизнесменом и решила уехать с ним в Финляндию… Спустя десятилетие Яна внезапно возвращается в Россию и обращается к Олегу за помощью. Оказывается, бросив парня ради финского счастья, она ещё и ничего не сказала про беременность – у Олега есть сын Витя, о котором он ничего не знал.

Качество: HDTV 1080p
Видео: MPEG-4 AVC, ~ 6957 Кбит/с, 1920x1080, 25 кадр/с
Аудио: MP2, 2 ch, 192 Кбит/с
Продолжительность: 8 х 00:49:05
Перевод: Не требуется
Субтитры: Нет

Скриншоты



MediaInfo

General
ID : 1 (0x1)
Complete name : C:01.Один шанс на троих (Ювенальная история).s01.E01.(2022).HDTV.(1080р).by.Nicodem.Files-x.ts
Format : MPEG-TS
File size : 2.58 GiB
Duration : 49mn 5s
Overall bit rate : 7 522 Kbps
Maximum Overall bit rate : 35.5 Mbps
Video
ID : 4113 (0x1011)
Menu ID : 1 (0x1)
Format : AVC
Format/Info : Advanced Video Codec
Format profile : High@L4.1
Format settings, CABAC : Yes
Format settings, ReFrames : 3 frames
Format settings, GOP : M=1, N=40
Codec ID : 27
Duration : 49mn 5s
Bit rate mode : Variable
Bit rate : 6 957 Kbps
Maximum bit rate : 8 865 Kbps
Width : 1 920 pixels
Height : 1 080 pixels
Display aspect ratio : 16:9
Frame rate : 25.000 fps
Color space : YUV
Chroma subsampling : 4:2:0
Bit depth : 8 bits
Scan type : Interlaced
Scan order : Top Field First
Bits/(Pixel*Frame) : 0.134
Stream size : 2.39 GiB (92%)
Language : English
Audio
ID : 4352 (0x1100)
Menu ID : 1 (0x1)
Format : MPEG Audio
Format version : Version 1
Format profile : Layer 2
Codec ID : 4
Duration : 49mn 5s
Bit rate mode : Constant
Bit rate : 192 Kbps
Channel(s) : 2 channels
Sampling rate : 44.1 KHz
Compression mode : Lossy
Stream size : 67.4 MiB (3%)

Раздача ведётся путём добавления новых серий

Внимание! Раздача ведётся путём добавления новых серий; при каждом добавлении создаётся новый торрент.
Чтобы начать докачку новой серии, пользователям необходимо сделать следующее:
1. Остановить скачивание;
2. Удалить старый торрент у себя из клиента (старые серии удалять не надо);
3. Скачать новый торрент и запустить его у себя в клиенте вместо старого, при этом указать клиенту путь в старую папку куда и должно происходить скачивание новых серий. Ваш клиент при этом должен произвести хеширование (проверку) старой папки и будет докачивать только те серии, которых у вас ещё нет. Старые серии при этом не удаляются, а продолжают раздаваться! Eсли вы уже удалили старые серии, то предотвратить повторную закачку старых серий можно, отжав галочку в соответствующих местах при запуске нового торрента.
Релиз от:

Release was prepared by RG Files-x

[Profile] [PM]
Display posts:    
Reply to topic

Current time is: 24-Jun 22:04

All times are UTC + 3



You cannot post new topics in this forum
You cannot reply to topics in this forum
You cannot edit your posts in this forum
You cannot delete your posts in this forum
You cannot vote in polls in this forum
You cannot attach files in this forum
You cannot download files in this forum