Кунг-фу Панда 4 / Kung Fu Panda 4 (2024) BDRip 1080p | Red Head Sound

Reply to topic
 
Author Message

HardwareMining ®

Gender: Male

Longevity: 4 years 9 months

Posts: 657

Post 16-Jun-2024 07:51

[Quote]

Кунг-фу Панда 4 / Kung Fu Panda 4
Год выпуска: 2024
Жанр: мультфильм, фэнтези, боевик, комедия, приключения, семейный
Выпущено: США, Китай | DreamWorks Animation, DreamWorks SKG, Universal Pictures
Режиссеры: Майк Митчелл, Стефани Стайн
В ролях: Джек Блэк, Аквафина, Виола Дэвис, Дастин Хоффман, Брайан Крэнстон, Джеймс Хун, Иэн Макшейн, Ке Хюи Куан, Ронни Чиэн, Лори Тань Чинн
О фильме:
Продолжение приключений легендарного воина По, его верных друзей и наставника.

Качество: BDRip 1080p
Видео: AVC, 1920x800 (2.40:1), 23,976 fps, 6910 Kbit/s (0.188 bit/pixel)
Аудио:#1 русский, AC3, 5.1, 48 kHz, 384 kbps CBR
Аудио:#2 русский, AC3, 5.1, 48 kHz, 640 kbps CBR
Продолжительность: 01:33:38
Перевод:#1 Дублированный | Movie Dubbing
Перевод:#2 Дублированный (неофициальный) | Red Head Sound (Панду По озвучивает Михаил Галустян)
Субтитры: Русские | Forced

Скриншоты

MediaInfo

General
Unique ID : 239905047880111334922421697857503007558 (0xB47C0813CE01ED6E904C97DAF8EA9346)
Complete name : E:\GF\Kung.Fu.Panda.4.2024.BDRip.1080p.Rip.by.HardwareMining.R.G.Generalfilm.mkv
Format : Matroska
Format version : Version 4
File size : 5.19 GiB
Duration : 1 h 33 min
Overall bit rate : 7 941 kb/s
Frame rate : 23.976 FPS
Movie name : Kung.Fu.Panda.4.2024.BDRip.1080p.Rip.by.HardwareMining.R.G.Generalfilm
Encoded date : 2024-07-20 03:41:12 UTC
Writing application : mkvmerge v6.8.0 ('Theme for Great Cities') 32bit built on Mar 2 2014 21:27:07
Writing library : libebml v1.3.0 + libmatroska v1.4.1
Cover : Yes
Attachments : cover.png / cover.jpg / small_cover.jpg
Video
ID : 1
Format : AVC
Format/Info : Advanced Video Codec
Format profile : High@L4.1
Format settings : CABAC / 4 Ref Frames
Format settings, CABAC : Yes
Format settings, Reference frames : 4 frames
Codec ID : V_MPEG4/ISO/AVC
Duration : 1 h 33 min
Bit rate : 6 910 kb/s
Width : 1 920 pixels
Height : 800 pixels
Display aspect ratio : 2.40:1
Frame rate mode : Constant
Frame rate : 23.976 FPS
Color space : YUV
Chroma subsampling : 4:2:0
Bit depth : 8 bits
Scan type : Progressive
Bits/(Pixel*Frame) : 0.188
Stream size : 4.42 GiB (85%)
Writing library : x264 core 130 r2273 b3065e6
Encoding settings : cabac=1 / ref=4 / deblock=1:-2:-1 / analyse=0x3:0x133 / me=umh / subme=10 / psy=1 / psy_rd=1.00:0.08 / mixed_ref=1 / me_range=32 / chroma_me=1 / trellis=2 / 8x8dct=1 / cqm=0 / deadzone=21,11 / fast_pskip=0 / chroma_qp_offset=-3 / threads=48 / lookahead_threads=6 / sliced_threads=0 / nr=0 / decimate=1 / interlaced=0 / bluray_compat=0 / constrained_intra=0 / bframes=11 / b_pyramid=2 / b_adapt=2 / b_bias=0 / direct=3 / weightb=1 / open_gop=0 / weightp=2 / keyint=250 / keyint_min=25 / scenecut=40 / intra_refresh=0 / rc=2pass / mbtree=0 / bitrate=6910 / ratetol=1.0 / qcomp=0.60 / qpmin=0 / qpmax=69 / qpstep=4 / cplxblur=20.0 / qblur=0.5 / ip_ratio=1.40 / pb_ratio=1.30 / aq=2:1.00
Language : English
Default : Yes
Forced : No
Color range : Limited
Color primaries : BT.709
Transfer characteristics : BT.709
Matrix coefficients : BT.709
Audio #1
ID : 2
Format : AC-3
Format/Info : Audio Coding 3
Commercial name : Dolby Digital
Codec ID : A_AC3
Duration : 1 h 33 min
Bit rate mode : Constant
Bit rate : 384 kb/s
Channel(s) : 6 channels
Channel layout : L R C LFE Ls Rs
Sampling rate : 48.0 kHz
Frame rate : 31.250 FPS (1536 SPF)
Compression mode : Lossy
Stream size : 257 MiB (5%)
Title : Dub | Movie Dubbing
Language : Russian
Service kind : Complete Main
Default : Yes
Forced : No
Dialog Normalization : -25 dB
compr : -0.28 dB
cmixlev : -3.0 dB
surmixlev : -3 dB
ltrtcmixlev : -3.0 dB
ltrtsurmixlev : -3.0 dB
lorocmixlev : -3.0 dB
lorosurmixlev : -3.0 dB
dialnorm_Average : -25 dB
dialnorm_Minimum : -25 dB
dialnorm_Maximum : -25 dB
Audio #2
ID : 3
Format : AC-3
Format/Info : Audio Coding 3
Commercial name : Dolby Digital
Codec ID : A_AC3
Duration : 1 h 33 min
Bit rate mode : Constant
Bit rate : 640 kb/s
Channel(s) : 6 channels
Channel layout : L R C LFE Ls Rs
Sampling rate : 48.0 kHz
Frame rate : 31.250 FPS (1536 SPF)
Compression mode : Lossy
Stream size : 429 MiB (8%)
Title : Dub | Red Head Sound
Language : Russian
Service kind : Complete Main
Default : No
Forced : No
Dialog Normalization : -31 dB
cmixlev : -3.0 dB
surmixlev : -3 dB
dialnorm_Average : -31 dB
dialnorm_Minimum : -31 dB
dialnorm_Maximum : -31 dB
Text
ID : 4
Format : UTF-8
Codec ID : S_TEXT/UTF8
Codec ID/Info : UTF-8 Plain Text
Title : Forced
Language : Russian
Default : Yes
Forced : No
Menu
00:00:00.000 : en:Chapter 01
00:04:18.800 : en:Chapter 02
00:09:04.043 : en:Chapter 03
00:12:24.910 : en:Chapter 04
00:16:55.139 : en:Chapter 05
00:20:54.878 : en:Chapter 06
00:25:59.558 : en:Chapter 07
00:31:00.400 : en:Chapter 08
00:35:24.789 : en:Chapter 09
00:40:16.705 : en:Chapter 10
00:44:23.661 : en:Chapter 11
00:50:42.873 : en:Chapter 12
00:55:15.937 : en:Chapter 13
01:00:46.142 : en:Chapter 14
01:04:06.592 : en:Chapter 15
01:08:40.825 : en:Chapter 16
01:12:17.416 : en:Chapter 17
01:17:06.705 : en:Chapter 18
01:22:26.232 : en:Chapter 19
01:24:48.166 : en:Chapter 20
Релиз от:
[Profile] [PM]

HardwareMining ®

Gender: Male

Longevity: 4 years 9 months

Posts: 657

Post 20-Jul-2024 06:55 (after 1 month 3 days)

[Quote]

Добавил официальный дубляж от Movie Dubbing
[Profile] [PM]
Display posts:    
Reply to topic

Current time is: 23-Jul 17:43

All times are UTC + 3



You cannot post new topics in this forum
You cannot reply to topics in this forum
You cannot edit your posts in this forum
You cannot delete your posts in this forum
You cannot vote in polls in this forum
You cannot attach files in this forum
You cannot download files in this forum